Обратиться в пепел / Into the Ashes (Аарон Харви / Aaron Kharvi) [2019, Драма, криминал, детектив, триллер, WEB-DL 720p P] :: UZTOR.PW Лучший трекер в зоне TAS-IX!
Регистрация ·
Имя: Пароль:  
· Забыли пароль?

Навигация по Торрент раздачам и Форум

 Обратиться в пепел / Into the Ashes (Аарон Харви / Aaron Kharvi) [2019, Драма, криминал, детектив, триллер, WEB-DL 720p P]

Главная  Кинофильмы  Зарубежные кинофильмы  Новинки (С рекламой)
Статистика раздачи
Нет
 
     
 
 
Автор Сообщение
  • Admin ®
  • Не в сети
  • 2
  • VIP пользователь

  • Пол: Мужской

  • Стаж: 3 года 4 месяца

  • Сообщений: 7

  • Провайдер: UzOnline UzOnline

  • Карма: 1009


  • Наличие запрета:

  • Награды: 2 (Подробнее)
    Admin (Количество: 1) Авторитет (Количество: 1)
  • Создавать темы 20-Июл-2019 21:13

    Обратиться в пепел | Into the Ashes-- Год выпуска: 2019
    Страна: США
    Жанр: Драма, криминал, детектив, триллер
    Продолжительность: 01:38:15
    Перевод: Любительский многоголосный - Синема УС (Присутствует реклама)-Режиссер: Аарон Харви / Aaron Kharvi-В ролях: Фрэнк Грилло, Люк Граймс, Маргерит Моро, Джеймс Бэдж Дэйл, Роберт Тейлор, Брэйди Смит, Джефф Поуп, Андреа Франкл, Скотт Пит, Роб Мелло-Описание: Ник Бреннер - счастливый семьянин. Он уже почти забыл о своем криминальном прошлом. Но однажды оно со всей жестокостью вновь ворвалось в его жизнь. Бывший коллега по криминальному цеху решил вернуть старый долг и убил жену Ника. Злость и жажда мести заполонила сердце бывшего бандита. Желая воздать убийцам по заслугам, Ник вновь берет в руки оружие...-Качество видео: WEB-DL 720p
    Формат видео: MKV-Видео: MPEG4 Video (H264) 1280x536 23.976fps 5 247 kb/s
    Аудио: AAC 48000Hz stereo 48.0 kHz 2 ch 384 kb/s-

    MediaInfo

    General
    Unique ID : 200213707757273719305148506766638564891 (0x969FC1EBD32E8B3AB82E24283ABFC61B)
    Complete name : E:\кино\Above_the_Shadows.2019.Pa.WEB-DL.72Op.mkv
    Format : Matroska
    Format version : Version 2
    File size : 4.41 GiB
    Duration : 1 h 52 min
    Overall bit rate mode : Variable
    Overall bit rate : 5 631 kb/s
    Encoded date : UTC 2019-07-20 00:07:36
    Writing application : mkvmerge v8.3.0 ('Over the Horizon') 64bit
    Writing library : libebml v1.3.1 + libmatroska v1.4.2
    Video
    ID : 2
    Format : AVC
    Format/Info : Advanced Video Codec
    Format profile : High@L4.1
    Format settings : CABAC / 4 Ref Frames
    Format settings, CABAC : Yes
    Format settings, Reference fra : 4 frames
    Codec ID : V_MPEG4/ISO/AVC
    Duration : 1 h 52 min
    Bit rate mode : Variable
    Bit rate : 5 247 kb/s
    Nominal bit rate : 6 000 kb/s
    Maximum bit rate : 6 000 kb/s
    Width : 1 280 pixels
    Height : 536 pixels
    Display aspect ratio : 2.40:1
    Frame rate mode : Constant
    Frame rate : 23.976 (24000/1001) FPS
    Standard : Component
    Color space : YUV
    Chroma subsampling : 4:2:0
    Bit depth : 8 bits
    Scan type : Progressive
    Bits/(Pixel*Frame) : 0.319
    Stream size : 4.11 GiB (93%)
    Writing library : x264 core 148
    Encoding settings : cabac=1 / ref=4 / deblock=1:0:0 / analyse=0x3:0x3 / me=dia / subme=1 / psy=1 / psy_rd=1.00:0.00 / mixed_ref=0 / me_range=16 / chroma_me=1 / trellis=0 / 8x8dct=1 / cqm=1 / deadzone=21,11 / fast_pskip=1 / chroma_qp_offset=0 / threads=17 / lookahead_threads=2 / sliced_threads=0 / slices=1 / nr=0 / decimate=1 / interlaced=0 / minigop=0 / stitchable=1 / constrained_intra=0 / bframes=2 / b_pyramid=0 / b_adapt=0 / b_bias=0 / direct=1 / weightb=1 / open_gop=1 / weightp=0 / keyint=240 / keyint_min=23 / scenecut=40 / intra_refresh=0 / rc_lookahead=0 / rc=cbr / mbtree=0 / bitrate=6000 / ratetol=1.0 / qcomp=0.60 / qpmin=1 / qpmax=69 / qpstep=4 / vbv_maxrate=6000 / vbv_bufsize=6000 / nal_hrd=vbr / filler=0 / ip_ratio=1.40 / pb_ratio=1.30 / aq=1:1.00
    Default : Yes
    Forced : No
    Color range : Limited
    Color primaries : BT.709
    Transfer characteristics : BT.709
    Matrix coefficients : BT.709
    Audio
    ID : 1
    Format : AAC Main
    Format/Info : Advanced Audio Codec
    Codec ID : A_AAC-1
    Duration : 1 h 52 min
    Bit rate : 384 kb/s
    Channel(s) : 2 channels
    Channel layout : L R
    Sampling rate : 48.0 kHz
    Frame rate : 46.875 FPS (1024 SPF)
    Compression mode : Lossy
    Stream size : 306 MiB (7%)
    Default : Yes
    Forced : No
    -
    Показать сообщения:    
    Главная  Кинофильмы  Зарубежные кинофильмы  Новинки (С рекламой)

    Текущее время: 18-Окт 08:13

    Часовой пояс: UTC + 5



    Вы не можете начинать темы
    Вы не можете отвечать на сообщения
    Вы не можете редактировать свои сообщения
    Вы не можете удалять свои сообщения
    Вы не можете голосовать в опросах
    Вы не можете прикреплять файлы к сообщениям
    Вы не можете скачивать файлы