Алита: Боевой ангел / Alita: Battle Angel (Роберт Родригес / Robert Rodriguez) [2019, Фантастика, боевик, триллер, UHD 4K BDRemux 2160p HDR] Лицензия :: UZTOR.PW Трекер для всех
Регистрация ·
Имя: Пароль:  
· Забыли пароль?

Навигация по Торрент раздачам и Форум

 Алита: Боевой ангел / Alita: Battle Angel (Роберт Родригес / Robert Rodriguez) [2019, Фантастика, боевик, триллер, UHD 4K BDRemux 2160p HDR] Лицензия

Главная  Кинофильмы  Кинофильмы (HEVC)  UHD Blu-Ray & BDRemux
Статистика раздачи
Нет
 
     
 
 
Автор Сообщение
  • -InVoKeR- ®
  • Не в сети
  • 5057
  • VIP пользователь

  • Пол: Мужской

  • Стаж: 9 месяцев 1 день

  • Сообщений: 284

  • Откуда: uztor.pw

  • Провайдер: UzOnline UzOnline

  • Тарифный план: Unlim 4 (99к, Мир: 4 Мбит/с, Tas-ix: 100Мбит/с)

  • Карма: 1118


  • Создавать темы 15-Июл-2019 13:27

    Алита: Боевой ангел / Alita: Battle Angel
    «Ангел падёт, и восстанет воин»
    --
    Год выпуска: 2019
    Страна: США
    Жанр: Фантастика, боевик, триллер, приключения, мелодрама
    Продолжительность: 02:01:57
    Перевод(ы):
    Дублированный | Лицензия
    Профессиональный многоголосый | СВ Студия
    Профессиональный многоголосый | HDRezka Studio-Режиссер: Роберт Родригес-В ролях: Роза Салазар, Кристоф Вальц, Дженнифер Коннелли, Махершала Али, Эд Скрейн, Джеки Эрл Хейли, Киан Джонсон, Хорхе Лендеборг мл., Лана Кондор, Идара Виктор-Описание: Действие фильма происходит через 300 лет после Великой войны в XXVI веке. Доктор Идо находит останки женщины-киборга. После починки киборг ничего не помнит, но обнаруживает, что в состоянии пользоваться боевыми приемами киборгов. Начинаются поиски утерянных воспоминаний.- -Дополнительная информация
    Сценарий: Джеймс Кэмерон, Лаэта Калогридис, Юкито Кисиро
    Продюсер: Джеймс Кэмерон, Джон Ландау, Дэвид Валдес
    Оператор: Билл Поуп
    Композитор: Джанки Экс-Эл
    Художник: Кэйла Эддлебльют, Стив Джойнер, Джефф Б. Адамс мл
    Монтаж: Стивен Е. Ривкин, Йен Силверштейн-Бюджет: $170 000 000
    Сборы в США: $85 710 210
    Сборы в России: $12 731 084
    Сборы в Мире: + $319 142 333 = $404 852 543-Возраст: 16+ (зрителям, достигшим 16 лет)
    Рейтинг MPAA: R (детям до 13 лет просмотр не желателен)-Дата мировой премьеры: 5 февраля 2019
    Дата российской премьеры: 14 февраля 2019, «Двадцатый Век Фокс СНГ»
    Цифровой релиз: 12 июля 2019, «Двадцатый Век Фокс СНГ»-Качество: UHD 4K BDRemux 2160p HDR
    Формат: MKV
    Видео: HEVC, 44.1 Мбит/с, 3840x2160, 10 bits
    Аудио #1: DTS, 6 ch, 768 Kbps - Русский (DUB, Лицензия)
    Аудио #2: AC3, 2 ch, 192 Kbps - Русский (MVO, CВ Студия)
    Аудио #3: AC3, 2 ch, 192 Kbps - Русский (MVO, HDRezka Studio)
    Аудио #4: AC3, 6 ch, 448 Kbps - Украинский (DUB, Лицензия)
    Аудио #5: TrueHD, 8 ch, 5013 Kbps - Английский
    Аудио #6: AC3, 6 ch, 640 Kbps - Английский
    Субтитры: Присутствует, Русские (Full, Forced), Украинские (Full), Английские (Full, SDH)
    Реклама: Отсутствует, Релиз без Рекламы!--Автор Рипа: селезень -

    Тех. инфо

    General
    Unique ID : 44160546270696733442934063388576472418 (0x2139030819373EF0BCC8885854945D62)
    Complete name : Alita.Battle.Angel.2019.Lic.BDREMUX.2160p.HDR.seleZen.mkv
    Format : Matroska
    Format version : Version 4
    File size : 41.5 GiB
    Duration : 2 h 1 min
    Overall bit rate mode : Variable
    Overall bit rate : 48.7 Mb/s
    Movie name : Alita Battle Angel 2019 from селезень
    Encoded date : UTC 2019-07-14 05:19:55
    Writing application : mkvmerge v22.0.0 ('At The End Of The World') 64-bit
    Writing library : libebml v1.3.5 + libmatroska v1.4.8
    Video
    ID : 1
    Format : HEVC
    Format/Info : High Efficiency Video Coding
    Commercial name : HDR10
    Format profile : Main 10@L5.1@High
    Codec ID : V_MPEGH/ISO/HEVC
    Duration : 2 h 1 min
    Width : 3 840 pixels
    Height : 2 160 pixels
    Display aspect ratio : 16:9
    Frame rate mode : Constant
    Frame rate : 23.976 (24000/1001) FPS
    Color space : YUV
    Chroma subsampling : 4:2:0 (Type 2)
    Bit depth : 10 bits
    Language : English
    Default : Yes
    Forced : No
    Color range : Limited
    Color primaries : BT.2020
    Transfer characteristics : PQ
    Matrix coefficients : BT.2020 non-constant
    Mastering display color pri : Display P3
    Mastering display luminance : min: 0.0001 cd/m2, max: 1000 cd/m2
    Maximum Content Light Level : 233 cd/m2
    Maximum Frame-Average Light : 63 cd/m2
    Audio #1
    ID : 2
    Format : DTS
    Format/Info : Digital Theater Systems
    Codec ID : A_DTS
    Duration : 2 h 1 min
    Bit rate mode : Constant
    Bit rate : 768 kb/s
    Channel(s) : 6 channels
    Channel layout : C L R Ls Rs LFE
    Sampling rate : 48.0 kHz
    Frame rate : 93.750 FPS (512 SPF)
    Bit depth : 24 bits
    Compression mode : Lossy
    Stream size : 670 MiB (2%)
    Title : Dub [License]
    Language : Russian
    Default : Yes
    Forced : Yes
    Audio #2
    ID : 3
    Format : AC-3
    Format/Info : Audio Coding 3
    Commercial name : Dolby Digital
    Codec ID : A_AC3
    Duration : 2 h 1 min
    Bit rate mode : Constant
    Bit rate : 192 kb/s
    Channel(s) : 2 channels
    Channel layout : L R
    Sampling rate : 48.0 kHz
    Frame rate : 31.250 FPS (1536 SPF)
    Bit depth : 16 bits
    Compression mode : Lossy
    Stream size : 167 MiB (0%)
    Title : MVO [СВ Студия]
    Language : Russian
    Service kind : Complete Main
    Default : No
    Forced : No
    Audio #3
    ID : 4
    Format : AC-3
    Format/Info : Audio Coding 3
    Commercial name : Dolby Digital
    Codec ID : A_AC3
    Duration : 2 h 1 min
    Bit rate mode : Constant
    Bit rate : 192 kb/s
    Channel(s) : 2 channels
    Channel layout : L R
    Sampling rate : 48.0 kHz
    Frame rate : 31.250 FPS (1536 SPF)
    Bit depth : 16 bits
    Compression mode : Lossy
    Stream size : 167 MiB (0%)
    Title : MVO [HDRezka Studio]
    Language : Russian
    Service kind : Complete Main
    Default : No
    Forced : No
    Audio #4
    ID : 5
    Format : AC-3
    Format/Info : Audio Coding 3
    Commercial name : Dolby Digital
    Codec ID : A_AC3
    Duration : 2 h 1 min
    Bit rate mode : Constant
    Bit rate : 448 kb/s
    Channel(s) : 6 channels
    Channel layout : L R C LFE Ls Rs
    Sampling rate : 48.0 kHz
    Frame rate : 31.250 FPS (1536 SPF)
    Bit depth : 16 bits
    Compression mode : Lossy
    Stream size : 391 MiB (1%)
    Title : Dub [License]
    Language : Ukrainian
    Service kind : Complete Main
    Default : No
    Forced : No
    Audio #5
    ID : 6
    Format : MLP FBA 16-ch
    Format/Info : Meridian Lossless Packing FBA with 16-channel presentation
    Commercial name : Dolby TrueHD with Dolby Atmos
    Codec ID : A_TRUEHD
    Duration : 2 h 1 min
    Bit rate mode : Variable
    Maximum bit rate : 5 013 kb/s
    Channel(s) : 8 channels
    Channel layout : L R C LFE Ls Rs Lb Rb
    Sampling rate : 48.0 kHz
    Frame rate : 1 200.000 FPS (40 SPF)
    Compression mode : Lossless
    Title : Original
    Language : English
    Default : No
    Forced : No
    Number of dynamic objects : 13
    Bed channel count : 1 channel
    Bed channel configuration : LFE
    Audio #6
    ID : 7
    Format : AC-3
    Format/Info : Audio Coding 3
    Commercial name : Dolby Digital
    Codec ID : A_AC3
    Duration : 2 h 1 min
    Bit rate mode : Constant
    Bit rate : 640 kb/s
    Channel(s) : 6 channels
    Channel layout : L R C LFE Ls Rs
    Sampling rate : 48.0 kHz
    Frame rate : 31.250 FPS (1536 SPF)
    Bit depth : 16 bits
    Compression mode : Lossy
    Stream size : 558 MiB (1%)
    Language : English
    Service kind : Complete Main
    Default : No
    Forced : No
    Text #1
    ID : 8
    Format : UTF-8
    Codec ID : S_TEXT/UTF8
    Codec ID/Info : UTF-8 Plain Text
    Title : Forced
    Language : Russian
    Default : Yes
    Forced : Yes
    Text #2
    ID : 9
    Format : UTF-8
    Codec ID : S_TEXT/UTF8
    Codec ID/Info : UTF-8 Plain Text
    Title : Full [License]
    Language : Russian
    Default : No
    Forced : No
    Text #3
    ID : 10
    Format : UTF-8
    Codec ID : S_TEXT/UTF8
    Codec ID/Info : UTF-8 Plain Text
    Title : Full [FOCS]
    Language : Russian
    Default : No
    Forced : No
    Text #4
    ID : 11
    Format : UTF-8
    Codec ID : S_TEXT/UTF8
    Codec ID/Info : UTF-8 Plain Text
    Title : Full [License]
    Language : Ukrainian
    Default : No
    Forced : No
    Text #5
    ID : 12
    Format : UTF-8
    Codec ID : S_TEXT/UTF8
    Codec ID/Info : UTF-8 Plain Text
    Title : Full
    Language : English
    Default : No
    Forced : No
    Text #6
    ID : 13
    Format : UTF-8
    Codec ID : S_TEXT/UTF8
    Codec ID/Info : UTF-8 Plain Text
    Title : SDH
    Language : English
    Default : No
    Forced : No
    Menu
    00:00:00.000 : en:00:00:00.000
    00:03:28.625 : en:00:03:28.625
    00:07:51.680 : en:00:07:51.680
    00:10:07.982 : en:00:10:07.982
    00:13:06.703 : en:00:13:06.703
    00:15:06.739 : en:00:15:06.739
    00:18:04.542 : en:00:18:04.542
    00:22:58.711 : en:00:22:58.711
    00:25:35.325 : en:00:25:35.325
    00:31:40.899 : en:00:31:40.899
    00:33:29.216 : en:00:33:29.216
    00:36:32.816 : en:00:36:32.816
    00:38:30.892 : en:00:38:30.892
    00:42:05.481 : en:00:42:05.481
    00:45:58.214 : en:00:45:58.214
    00:48:31.450 : en:00:48:31.450
    00:52:57.007 : en:00:52:57.007
    00:55:14.353 : en:00:55:14.353
    01:00:39.761 : en:01:00:39.761
    01:02:56.564 : en:01:02:56.564
    01:05:16.788 : en:01:05:16.788
    01:10:50.496 : en:01:10:50.496
    01:13:37.288 : en:01:13:37.288
    01:16:35.216 : en:01:16:35.216
    01:18:52.227 : en:01:18:52.227
    01:22:48.297 : en:01:22:48.297
    01:24:55.340 : en:01:24:55.340
    01:28:25.217 : en:01:28:25.217
    01:33:18.551 : en:01:33:18.551
    01:36:08.763 : en:01:36:08.763
    01:41:54.692 : en:01:41:54.692
    01:45:23.442 : en:01:45:23.442
    01:48:16.490 : en:01:48:16.490
    01:51:43.655 : en:01:51:43.655
    01:54:43.668 : en:01:54:43.668
    01:56:51.504 : en:01:56:51.504
    Показать сообщения:    
    Главная  Кинофильмы  Кинофильмы (HEVC)  UHD Blu-Ray & BDRemux

    Текущее время: 18-Авг 21:25

    Часовой пояс: UTC + 5



    Вы не можете начинать темы
    Вы не можете отвечать на сообщения
    Вы не можете редактировать свои сообщения
    Вы не можете удалять свои сообщения
    Вы не можете голосовать в опросах
    Вы не можете прикреплять файлы к сообщениям
    Вы не можете скачивать файлы