Алита: Боевой ангел / Alita: Battle Angel (Роберт Родригес / Robert Rodriguez) [2019, Фантастика, боевик, триллер, UHD 4K WEB-DL 2160p HDR] iTunes :: UZTOR.PW Трекер для всех
Регистрация ·
Имя: Пароль:  
· Забыли пароль?

Навигация по Торрент раздачам и Форум

 Алита: Боевой ангел / Alita: Battle Angel (Роберт Родригес / Robert Rodriguez) [2019, Фантастика, боевик, триллер, UHD 4K WEB-DL 2160p HDR] iTunes

Главная  Кинофильмы  Зарубежные кинофильмы  HD
Статистика раздачи
Нет
 
     
 
 
Автор Сообщение
  • -InVoKeR- ®
  • Не в сети
  • 5057
  • VIP пользователь

  • Пол: Мужской

  • Стаж: 9 месяцев 1 день

  • Сообщений: 284

  • Откуда: uztor.pw

  • Провайдер: UzOnline UzOnline

  • Тарифный план: Unlim 4 (99к, Мир: 4 Мбит/с, Tas-ix: 100Мбит/с)

  • Карма: 1118


  • Создавать темы 12-Июл-2019 10:18

    Алита: Боевой ангел / Alita: Battle Angel
    «Ангел падёт, и восстанет воин»
    --
    Год выпуска: 2019
    Страна: США
    Жанр: Фантастика, боевик, триллер, приключения, мелодрама
    Продолжительность: 02:01:57
    Перевод: Дублированный iTunes-Режиссер: Роберт Родригес-В ролях: Роза Салазар, Кристоф Вальц, Дженнифер Коннелли, Махершала Али, Эд Скрейн, Джеки Эрл Хейли, Киан Джонсон, Хорхе Лендеборг мл., Лана Кондор, Идара Виктор-Описание: Действие фильма происходит через 300 лет после Великой войны в XXVI веке. Доктор Идо находит останки женщины-киборга. После починки киборг ничего не помнит, но обнаруживает, что в состоянии пользоваться боевыми приемами киборгов. Начинаются поиски утерянных воспоминаний.- -Дополнительная информация
    Сценарий: Джеймс Кэмерон, Лаэта Калогридис, Юкито Кисиро
    Продюсер: Джеймс Кэмерон, Джон Ландау, Дэвид Валдес
    Оператор: Билл Поуп
    Композитор: Джанки Экс-Эл
    Художник: Кэйла Эддлебльют, Стив Джойнер, Джефф Б. Адамс мл
    Монтаж: Стивен Е. Ривкин, Йен Силверштейн-Бюджет: $170 000 000
    Сборы в США: $85 710 210
    Сборы в России: $12 731 084
    Сборы в Мире: + $319 142 333 = $404 852 543-Возраст: 16+ (зрителям, достигшим 16 лет)
    Рейтинг MPAA: R (детям до 13 лет просмотр не желателен)-Дата мировой премьеры: 5 февраля 2019
    Дата российской премьеры: 14 февраля 2019, «Двадцатый Век Фокс СНГ»
    Цифровой релиз: 12 июля 2019, «Двадцатый Век Фокс СНГ»-Качество: UHD 4K WEB-DL 2160p HDR
    Формат: MKV
    Видео: HEVC, 24.5 Мбит/с, 3840x2160, 10 bits
    Аудио #1: AC3, 6 канала, 384 Кбит/сек | iTunes
    Аудио #2: E-AC3, 6 канала, 576 Кбит/сек | Original
    Субтитры: Присутствует, Русские, английские
    Реклама: Отсутствует, Релиз без Рекламы!--Автор Рипа: AMAZON BLUEBIRD-

    Тех. инфо

    Video
    ID : 1
    Format : HEVC
    Format/Info : High Efficiency Video Coding
    Commercial name : HDR10
    Format profile : Main 10@L5@High
    Codec ID : V_MPEGH/ISO/HEVC
    Duration : 2 h 1 min
    Bit rate : 24.5 Mb/s
    Width : 3 840 pixels
    Height : 1 608 pixels
    Original height : 2 160 pixels
    Display aspect ratio : 16:9
    Frame rate mode : Constant
    Frame rate : 23.976 (24000/1001) FPS
    Color space : YUV
    Chroma subsampling : 4:2:0 (Type 2)
    Bit depth : 10 bits
    Bits/(Pixel*Frame) : 0.165
    Stream size : 20.9 GiB (96%)
    Title : ALITA_BATTLE_ANGEL_2019_WEB_DL_2160p_HDR-DEFLATE
    Language : English
    Default : Yes
    Forced : No
    Color range : Limited
    Color primaries : BT.2020
    Transfer characteristics : PQ
    Matrix coefficients : BT.2020 non-constant
    Mastering display color pri : Display P3
    Mastering display luminance : min: 0.0050 cd/m2, max: 1000 cd/m2
    Audio #1
    ID : 2
    Format : AC-3
    Format/Info : Audio Coding 3
    Commercial name : Dolby Digital
    Codec ID : A_AC3
    Duration : 2 h 1 min
    Bit rate mode : Constant
    Bit rate : 384 kb/s
    Channel(s) : 6 channels
    Channel layout : L R C LFE Ls Rs
    Sampling rate : 48.0 kHz
    Frame rate : 31.250 FPS (1536 SPF)
    Bit depth : 16 bits
    Compression mode : Lossy
    Stream size : 335 MiB (2%)
    Title : [DUB] DD 5.1 @ 384 kbps (iTunes)
    Language : Russian
    Service kind : Complete Main
    Default : Yes
    Forced : No
    Audio #2
    ID : 3
    Format : E-AC-3 JOC
    Format/Info : Enhanced AC-3 with Joint Object Coding
    Commercial name : Dolby Digital Plus with Dolby Atmos
    Codec ID : A_EAC3
    Duration : 2 h 1 min
    Bit rate mode : Constant
    Bit rate : 576 kb/s
    Channel(s) : 6 channels
    Channel layout : L R C LFE Ls Rs
    Sampling rate : 48.0 kHz
    Frame rate : 31.250 FPS (1536 SPF)
    Compression mode : Lossy
    Delay relative to video : 83 ms
    Stream size : 502 MiB (2%)
    Title : DD+ Atmos 5.1 @ 576 kbps
    Language : English
    Service kind : Complete Main
    Default : No
    Forced : No
    Complexity index : 16
    Number of dynamic objects : 15
    Bed channel count : 1 channel
    Bed channel configuration : LFE
    Text #1
    ID : 4
    Format : UTF-8
    Codec ID : S_TEXT/UTF8
    Codec ID/Info : UTF-8 Plain Text
    Duration : 25 min 5 s
    Bit rate : 0 b/s
    Count of elements : 2
    Stream size : 95.0 Bytes (0%)
    Title : Forced
    Language : Russian
    Default : Yes
    Forced : No
    Text #2
    ID : 5
    Format : UTF-8
    Codec ID : S_TEXT/UTF8
    Codec ID/Info : UTF-8 Plain Text
    Duration : 1 h 55 min
    Bit rate : 40 b/s
    Count of elements : 1347
    Stream size : 34.0 KiB (0%)
    Title : Full-length
    Language : English
    Default : No
    Forced : No
    Text #3
    ID : 6
    Format : UTF-8
    Codec ID : S_TEXT/UTF8
    Codec ID/Info : UTF-8 Plain Text
    Duration : 1 h 55 min
    Bit rate : 45 b/s
    Count of elements : 1588
    Stream size : 38.5 KiB (0%)
    Title : SDH
    Language : English
    Default : No
    Forced : No
    Menu
    00:00:01.000 : en:Chapter 01
    00:03:29.000 : en:Chapter 02
    00:07:52.000 : en:Chapter 03
    00:10:08.000 : en:Chapter 04
    00:13:07.000 : en:Chapter 05
    00:15:07.000 : en:Chapter 06
    00:18:05.000 : en:Chapter 07
    00:22:59.000 : en:Chapter 08
    00:25:36.000 : en:Chapter 09
    00:31:41.000 : en:Chapter 10
    00:33:30.000 : en:Chapter 11
    00:36:33.000 : en:Chapter 12
    00:38:31.000 : en:Chapter 13
    00:42:06.000 : en:Chapter 14
    00:45:59.000 : en:Chapter 15
    00:48:32.000 : en:Chapter 16
    00:52:58.000 : en:Chapter 17
    00:55:15.000 : en:Chapter 18
    01:00:40.000 : en:Chapter 19
    01:02:57.000 : en:Chapter 20
    01:05:17.000 : en:Chapter 21
    01:10:51.000 : en:Chapter 22
    01:13:38.000 : en:Chapter 23
    01:16:36.000 : en:Chapter 24
    01:18:53.000 : en:Chapter 25
    01:22:49.000 : en:Chapter 26
    01:24:56.000 : en:Chapter 27
    01:28:26.000 : en:Chapter 28
    01:33:19.000 : en:Chapter 29
    01:36:09.000 : en:Chapter 30
    01:41:55.000 : en:Chapter 31
    01:45:24.000 : en:Chapter 32
    01:48:17.000 : en:Chapter 33
    01:51:44.000 : en:Chapter 34
    01:54:44.000 : en:Chapter 35
    01:56:52.000 : en:Chapter 36
    Показать сообщения:    
    Главная  Кинофильмы  Зарубежные кинофильмы  HD

    Текущее время: 18-Авг 21:20

    Часовой пояс: UTC + 5



    Вы не можете начинать темы
    Вы не можете отвечать на сообщения
    Вы не можете редактировать свои сообщения
    Вы не можете удалять свои сообщения
    Вы не можете голосовать в опросах
    Вы не можете прикреплять файлы к сообщениям
    Вы не можете скачивать файлы