Алита: Боевой ангел / Alita: Battle Angel (Роберт Родригес / Robert Rodriguez) [2019, Фантастика, боевик, триллер, WEB-DL 1080p] iTunes :: UZTOR.PW Лучший трекер в зоне TAS-IX!
Регистрация ·
Имя: Пароль:  
· Забыли пароль?
Уважаемые гости сайта! Добро Пожаловать на наш торрент трекер,где Вы можете бесплатно скачать любой Софт,Фильмы,Музыку и многое другое! А так же постоянно ведется набор модераторов и релизеров. Зарегистрируйтесь сейчас, чтобы получить доступ ко всем функциям. После регистрации или входа на сайт вы сможете создавать темы, отвечать на сообщения и скачивать файлы.

Навигация по Торрент раздачам и Форум

До нового обновления Торрент-Трекер осталось

 Алита: Боевой ангел / Alita: Battle Angel (Роберт Родригес / Robert Rodriguez) [2019, Фантастика, боевик, триллер, WEB-DL 1080p] iTunes

Главная  Кинофильмы  Зарубежные кинофильмы  HD
Статистика раздачи
Нет
 
     
 
 
Автор Сообщение
  • -InVoKeR- ®
  • Не в сети
  • 5057
  • VIP пользователь

  • Пол: Мужской

  • Стаж: 1 год

  • Сообщений: 421

  • Откуда: uztor.pw

  • Провайдер: UzOnline UzOnline

  • Тарифный план: Unlim 4 (Мир: 4 Мбит/с, Tas-ix: 100Мбит/с)

  • Steam: 76561198442747843

  • Telegram: i_Invoker

  • Карма: 1128


  • Наличие запрета:

  • Награды: 22 (Подробнее)
    Admin (Количество: 1) Авторитет (Количество: 1) Активный релизер 1 (Количество: 1) Активный релизер 2 (Количество: 1) Активный сидер 1 (Количество: 1)
  • Создавать темы 12-Июл-2019 10:05

    Алита: Боевой ангел / Alita: Battle Angel
    «Ангел падёт, и восстанет воин»
    --
    Год выпуска: 2019
    Страна: США
    Жанр: Фантастика, боевик, триллер, приключения, мелодрама
    Продолжительность: 02:01:57
    Перевод: Дублированный iTunes-Режиссер: Роберт Родригес-В ролях: Роза Салазар, Кристоф Вальц, Дженнифер Коннелли, Махершала Али, Эд Скрейн, Джеки Эрл Хейли, Киан Джонсон, Хорхе Лендеборг мл., Лана Кондор, Идара Виктор-Описание: Действие фильма происходит через 300 лет после Великой войны в XXVI веке. Доктор Идо находит останки женщины-киборга. После починки киборг ничего не помнит, но обнаруживает, что в состоянии пользоваться боевыми приемами киборгов. Начинаются поиски утерянных воспоминаний.- -Дополнительная информация
    Сценарий: Джеймс Кэмерон, Лаэта Калогридис, Юкито Кисиро
    Продюсер: Джеймс Кэмерон, Джон Ландау, Дэвид Валдес
    Оператор: Билл Поуп
    Композитор: Джанки Экс-Эл
    Художник: Кэйла Эддлебльют, Стив Джойнер, Джефф Б. Адамс мл
    Монтаж: Стивен Е. Ривкин, Йен Силверштейн-Бюджет: $170 000 000
    Сборы в США: $85 710 210
    Сборы в России: $12 731 084
    Сборы в Мире: + $319 142 333 = $404 852 543-Возраст: 16+ (зрителям, достигшим 16 лет)
    Рейтинг MPAA: R (детям до 13 лет просмотр не желателен)-Дата мировой премьеры: 5 февраля 2019
    Дата российской премьеры: 14 февраля 2019, «Двадцатый Век Фокс СНГ»
    Цифровой релиз: 12 июля 2019, «Двадцатый Век Фокс СНГ»-Качество: WEB-DL 1080p
    Формат: MKV
    Видео: AVC, 8 601 Кбит/с, 1920x800
    Аудио #1: AC3, 6 канала, 384 Кбит/сек | iTunes
    Аудио #2: E-AC3, 6 канала, 576 Кбит/сек | Original
    Субтитры: Присутствует, Русские, английские
    Реклама: Отсутствует, Релиз без Рекламы!--Автор Рипа: AMAZON BLUEBIRD-

    Тех. инфо

    Video
    ID : 1
    Format : AVC
    Format/Info : Advanced Video Codec
    Format profile : High@L4
    Format settings : CABAC / 4 Ref Frames
    Format settings, CABAC : Yes
    Format settings, ReFrames : 4 frames
    Codec ID : V_MPEG4/ISO/AVC
    Duration : 2 h 1 min
    Bit rate mode : Constant
    Bit rate : 8 601 kb/s
    Nominal bit rate : 10 000 kb/s
    Width : 1 920 pixels
    Height : 800 pixels
    Display aspect ratio : 2.40:1
    Frame rate mode : Constant
    Frame rate : 23.976 (24000/1001) FPS
    Color space : YUV
    Chroma subsampling : 4:2:0
    Bit depth : 8 bits
    Scan type : Progressive
    Bits/(Pixel*Frame) : 0.234
    Stream size : 7.33 GiB (88%)
    Title : ALITA_BATTLE_ANGEL_2019_WEB_DL_1080p_AMAZON-BLUEBIRD
    Default : Yes
    Forced : No
    Color range : Limited
    Color primaries : BT.709
    Transfer characteristics : BT.709
    Matrix coefficients : BT.709
    Audio #1
    ID : 2
    Format : AC-3
    Format/Info : Audio Coding 3
    Commercial name : Dolby Digital
    Codec ID : A_AC3
    Duration : 2 h 1 min
    Bit rate mode : Constant
    Bit rate : 384 kb/s
    Channel(s) : 6 channels
    Channel layout : L R C LFE Ls Rs
    Sampling rate : 48.0 kHz
    Frame rate : 31.250 FPS (1536 SPF)
    Bit depth : 16 bits
    Compression mode : Lossy
    Stream size : 335 MiB (4%)
    Title : [DUB] DD 5.1 @ 384 kbps (iTunes)
    Language : Russian
    Service kind : Complete Main
    Default : Yes
    Forced : No
    Audio #2
    ID : 3
    Format : E-AC-3 JOC
    Format/Info : Enhanced AC-3 with Joint Object Coding
    Commercial name : Dolby Digital Plus with Dolby Atmos
    Codec ID : A_EAC3
    Duration : 2 h 1 min
    Bit rate mode : Constant
    Bit rate : 576 kb/s
    Channel(s) : 6 channels
    Channel layout : L R C LFE Ls Rs
    Sampling rate : 48.0 kHz
    Frame rate : 31.250 FPS (1536 SPF)
    Compression mode : Lossy
    Delay relative to video : 83 ms
    Stream size : 502 MiB (6%)
    Title : DD+ Atmos 5.1 @ 576 kbps
    Language : English
    Service kind : Complete Main
    Default : No
    Forced : No
    Complexity index : 16
    Number of dynamic objects : 15
    Bed channel count : 1 channel
    Bed channel configuration : LFE
    Text #1
    ID : 4
    Format : UTF-8
    Codec ID : S_TEXT/UTF8
    Codec ID/Info : UTF-8 Plain Text
    Title : Full-length
    Language : English
    Default : No
    Forced : No
    Text #2
    ID : 5
    Format : UTF-8
    Codec ID : S_TEXT/UTF8
    Codec ID/Info : UTF-8 Plain Text
    Title : SDH
    Language : English
    Default : No
    Forced : No
    Text #3
    ID : 6
    Format : UTF-8
    Codec ID : S_TEXT/UTF8
    Codec ID/Info : UTF-8 Plain Text
    Title : Forced
    Language : Russian
    Default : Yes
    Forced : No
    Menu
    00:00:00.000 : en:Scene 1
    00:00:27.000 : en:Scene 2
    00:05:23.000 : en:Scene 3
    00:13:08.000 : en:Scene 4
    00:18:06.000 : en:Scene 5
    00:23:00.000 : en:Scene 6
    00:25:40.000 : en:Scene 7
    00:33:30.000 : en:Scene 8
    00:36:34.000 : en:Scene 9
    00:37:47.000 : en:Scene 10
    00:38:32.000 : en:Scene 11
    00:41:07.000 : en:Scene 12
    00:45:59.000 : en:Scene 13
    00:48:32.000 : en:Scene 14
    00:52:58.000 : en:Scene 15
    00:55:16.000 : en:Scene 16
    01:02:58.000 : en:Scene 17
    01:10:24.000 : en:Scene 18
    01:16:36.000 : en:Scene 19
    01:18:53.000 : en:Scene 20
    01:22:50.000 : en:Scene 21
    01:24:57.000 : en:Scene 22
    01:28:26.000 : en:Scene 23
    01:36:10.000 : en:Scene 24
    01:38:42.000 : en:Scene 25
    01:43:29.000 : en:Scene 26
    01:44:46.000 : en:Scene 27
    01:51:45.000 : en:Scene 28
    01:54:31.000 : en:Scene 29
    01:56:53.000 : en:Scene 30
    01:56:56.000 : en:Scene 31

    _________________
    Показать сообщения:    
    Главная  Кинофильмы  Зарубежные кинофильмы  HD

    Текущее время: 10-Дек 10:52

    Часовой пояс: UTC + 5



    Вы не можете начинать темы
    Вы не можете отвечать на сообщения
    Вы не можете редактировать свои сообщения
    Вы не можете удалять свои сообщения
    Вы не можете голосовать в опросах
    Вы не можете прикреплять файлы к сообщениям
    Вы не можете скачивать файлы