Алита: Боевой ангел / Alita: Battle Angel (Роберт Родригес / Robert Rodriguez) [2019, Фантастика, боевик, триллер, BDRip 720p] iTunes :: UZTOR.PW Лучший трекер в зоне TAS-IX!
Регистрация ·
Имя: Пароль:  
· Забыли пароль?
Уважаемые гости сайта! Добро Пожаловать на наш торрент трекер,где Вы можете бесплатно скачать любой Софт,Фильмы,Музыку и многое другое! А так же постоянно ведется набор модераторов и релизеров. Зарегистрируйтесь сейчас, чтобы получить доступ ко всем функциям. После регистрации или входа на сайт вы сможете создавать темы, отвечать на сообщения и скачивать файлы.

Навигация по Торрент раздачам и Форум

До нового обновления Торрент-Трекер осталось

 Алита: Боевой ангел / Alita: Battle Angel (Роберт Родригес / Robert Rodriguez) [2019, Фантастика, боевик, триллер, BDRip 720p] iTunes

Главная  Кинофильмы  Зарубежные кинофильмы  HD
Статистика раздачи
Нет
 
     
 
 
Автор Сообщение
  • -InVoKeR- ®
  • Не в сети
  • 5057
  • VIP пользователь

  • Пол: Мужской

  • Стаж: 1 год

  • Сообщений: 421

  • Откуда: uztor.pw

  • Провайдер: UzOnline UzOnline

  • Тарифный план: Unlim 4 (Мир: 4 Мбит/с, Tas-ix: 100Мбит/с)

  • Steam: 76561198442747843

  • Telegram: i_Invoker

  • Карма: 1128


  • Наличие запрета:

  • Награды: 22 (Подробнее)
    Admin (Количество: 1) Авторитет (Количество: 1) Активный релизер 1 (Количество: 1) Активный релизер 2 (Количество: 1) Активный сидер 1 (Количество: 1)
  • Создавать темы 12-Июл-2019 09:37

    Алита: Боевой ангел / Alita: Battle Angel
    «Ангел падёт, и восстанет воин»
    --
    Год выпуска: 2019
    Страна: США
    Жанр: Фантастика, боевик, триллер, приключения, мелодрама
    Продолжительность: 02:01:57
    Перевод(ы):
    Дублированный iTunes
    Профессиональный многоголосый CВ Студия
    Профессиональный многоголосый HDRezka Studio-Режиссер: Роберт Родригес-В ролях: Роза Салазар, Кристоф Вальц, Дженнифер Коннелли, Махершала Али, Эд Скрейн, Джеки Эрл Хейли, Киан Джонсон, Хорхе Лендеборг мл., Лана Кондор, Идара Виктор-Описание: Действие фильма происходит через 300 лет после Великой войны в XXVI веке. Доктор Идо находит останки женщины-киборга. После починки киборг ничего не помнит, но обнаруживает, что в состоянии пользоваться боевыми приемами киборгов. Начинаются поиски утерянных воспоминаний.- -Дополнительная информация
    Сценарий: Джеймс Кэмерон, Лаэта Калогридис, Юкито Кисиро
    Продюсер: Джеймс Кэмерон, Джон Ландау, Дэвид Валдес
    Оператор: Билл Поуп
    Композитор: Джанки Экс-Эл
    Художник: Кэйла Эддлебльют, Стив Джойнер, Джефф Б. Адамс мл
    Монтаж: Стивен Е. Ривкин, Йен Силверштейн-Бюджет: $170 000 000
    Сборы в США: $85 710 210
    Сборы в России: $12 731 084
    Сборы в Мире: + $319 142 333 = $404 852 543-Возраст: 16+ (зрителям, достигшим 16 лет)
    Рейтинг MPAA: R (детям до 13 лет просмотр не желателен)-Дата мировой премьеры: 5 февраля 2019
    Дата российской премьеры: 14 февраля 2019, «Двадцатый Век Фокс СНГ»
    Цифровой релиз: 12 июля 2019, «Двадцатый Век Фокс СНГ»-Качество: BDRip 720p
    Формат: MKV
    Видео: AVC, 5447 Kбит/с, 1280x536
    Аудио #1: AC3, 6 канала, 384 Кбит/сек | iTunes
    Аудио #2: AC3, 2 канала, 192 Кбит/сек | CВ Студия
    Аудио #3: AC3, 2 канала, 192 Кбит/сек | HDRezka Studio
    Аудио #4: DTS, 6 канала, 1510 Кбит/сек | Original
    Субтитры: Присутствует, Русские, английские
    Реклама: Отсутствует, Релиз без Рекламы!--Автор Рипа: селезень -

    Тех. инфо

    General
    Unique ID : 199836758940159245887137705026308455052 (0x965728E8DD0CA78FFDFC1DC15282BA8C)
    Complete name : H:\Alita.Battle.Angel.2019.BDRip.720p.seleZen.mkv
    Format : Matroska
    Format version : Version 4
    File size : 6.58 GiB
    Duration : 2 h 1 min
    Overall bit rate : 7 727 kb/s
    Movie name : Alita Battle Angel 2019 from селезень
    Encoded date : UTC 2019-07-11 21:44:59
    Writing application : mkvmerge v35.0.0 ('All The Love In The World') 64-bit
    Writing library : libebml v1.3.9 + libmatroska v1.5.2
    Video
    ID : 1
    Format : AVC
    Format/Info : Advanced Video Codec
    Format profile : High@L4.1
    Format settings : CABAC / 12 Ref Frames
    Format settings, CABAC : Yes
    Format settings, ReFrames : 12 frames
    Codec ID : V_MPEG4/ISO/AVC
    Duration : 2 h 1 min
    Bit rate : 5 296 kb/s
    Width : 1 280 pixels
    Height : 536 pixels
    Display aspect ratio : 2.40:1
    Frame rate mode : Constant
    Frame rate : 23.976 (24000/1001) FPS
    Color space : YUV
    Chroma subsampling : 4:2:0
    Bit depth : 8 bits
    Scan type : Progressive
    Bits/(Pixel*Frame) : 0.322
    Stream size : 4.51 GiB (69%)
    Title : MTeam
    Writing library : x264 core 157 r2938 2b00a84 TnP@MTeam Mod
    Encoding settings : cabac=1 / ref=12 / deblock=1:-3:-3 / analyse=0x3:0x133 / me=umh / subme=10 / psy=1 / psy_rd=1.05:0.00 / mixed_ref=1 / me_range=32 / chroma_me=1 / trellis=2 / 8x8dct=1 / cqm=0 / deadzone=21,11 / fast_pskip=0 / chroma_qp_offset=-2 / threads=12 / lookahead_threads=2 / sliced_threads=0 / nr=0 / decimate=0 / interlaced=0 / bluray_compat=0 / constrained_intra=0 / bframes=8 / b_pyramid=2 / b_adapt=2 / b_bias=0 / direct=3 / weightb=1 / open_gop=0 / weightp=2 / keyint=250 / keyint_min=24 / scenecut=40 / intra_refresh=0 / rc_lookahead=250 / rc=crf / mbtree=0 / crf=16.2 / qcomp=0.60 / qpmin=0 / qpmax=69 / qpstep=4 / vbv_maxrate=62500 / vbv_bufsize=78125 / crf_max=0.0 / nal_hrd=none / filler=0 / ip_ratio=1.30 / pb_ratio=1.20 / aq=3:0.80
    Language : English
    Default : Yes
    Forced : No
    Color range : Limited
    Color primaries : BT.709
    Matrix coefficients : BT.709
    Audio #1
    ID : 2
    Format : AC-3
    Format/Info : Audio Coding 3
    Commercial name : Dolby Digital
    Codec ID : A_AC3
    Duration : 2 h 1 min
    Bit rate mode : Constant
    Bit rate : 384 kb/s
    Channel(s) : 6 channels
    Channel layout : L R C LFE Ls Rs
    Sampling rate : 48.0 kHz
    Frame rate : 31.250 FPS (1536 SPF)
    Bit depth : 16 bits
    Compression mode : Lossy
    Stream size : 335 MiB (5%)
    Title : iTunes
    Language : Russian
    Service kind : Complete Main
    Default : Yes
    Forced : Yes
    Audio #2
    ID : 3
    Format : AC-3
    Format/Info : Audio Coding 3
    Commercial name : Dolby Digital
    Codec ID : A_AC3
    Duration : 2 h 1 min
    Bit rate mode : Constant
    Bit rate : 192 kb/s
    Channel(s) : 2 channels
    Channel layout : L R
    Sampling rate : 48.0 kHz
    Frame rate : 31.250 FPS (1536 SPF)
    Bit depth : 16 bits
    Compression mode : Lossy
    Stream size : 167 MiB (2%)
    Title : MVO [СВ Студия]
    Language : Russian
    Service kind : Complete Main
    Default : No
    Forced : No
    Audio #3
    ID : 4
    Format : AC-3
    Format/Info : Audio Coding 3
    Commercial name : Dolby Digital
    Codec ID : A_AC3
    Duration : 2 h 1 min
    Bit rate mode : Constant
    Bit rate : 192 kb/s
    Channel(s) : 2 channels
    Channel layout : L R
    Sampling rate : 48.0 kHz
    Frame rate : 31.250 FPS (1536 SPF)
    Bit depth : 16 bits
    Compression mode : Lossy
    Stream size : 167 MiB (2%)
    Title : MVO [HDRezka Studio]
    Language : Russian
    Service kind : Complete Main
    Default : No
    Forced : No
    Audio #4
    ID : 5
    Format : DTS ES
    Format/Info : Digital Theater Systems
    Commercial name : DTS-ES Matrix
    Codec ID : A_DTS
    Duration : 2 h 1 min
    Bit rate mode : Constant
    Bit rate : 1 509 kb/s
    Channel(s) : 6 channels
    Channel(s)_Original : 7 channels
    Channel layout : C L R Ls Rs Cb LFE
    Sampling rate : 48.0 kHz
    Frame rate : 93.750 FPS (512 SPF)
    Bit depth : 24 bits
    Compression mode : Lossy
    Stream size : 1.29 GiB (20%)
    Title : Original
    Language : English
    Default : No
    Forced : No
    Text #1
    ID : 6
    Format : UTF-8
    Codec ID : S_TEXT/UTF8
    Codec ID/Info : UTF-8 Plain Text
    Title : Forced
    Language : Russian
    Default : Yes
    Forced : Yes
    Text #2
    ID : 7
    Format : UTF-8
    Codec ID : S_TEXT/UTF8
    Codec ID/Info : UTF-8 Plain Text
    Title : Full
    Language : Russian
    Default : No
    Forced : No
    Text #3
    ID : 8
    Format : UTF-8
    Codec ID : S_TEXT/UTF8
    Codec ID/Info : UTF-8 Plain Text
    Title : SDH
    Language : English
    Default : No
    Forced : No
    Menu
    00:00:00.000 : en:Chapter 01
    00:03:28.625 : en:Chapter 02
    00:07:51.680 : en:Chapter 03
    00:10:07.982 : en:Chapter 04
    00:13:06.703 : en:Chapter 05
    00:15:06.739 : en:Chapter 06
    00:18:04.542 : en:Chapter 07
    00:22:58.711 : en:Chapter 08
    00:25:35.325 : en:Chapter 09
    00:31:40.899 : en:Chapter 10
    00:33:29.216 : en:Chapter 11
    00:36:32.816 : en:Chapter 12
    00:38:30.892 : en:Chapter 13
    00:42:05.481 : en:Chapter 14
    00:45:58.214 : en:Chapter 15
    00:48:31.450 : en:Chapter 16
    00:52:57.007 : en:Chapter 17
    00:55:14.353 : en:Chapter 18
    01:00:39.761 : en:Chapter 19
    01:02:56.564 : en:Chapter 20
    01:05:16.788 : en:Chapter 21
    01:10:50.496 : en:Chapter 22
    01:13:37.288 : en:Chapter 23
    01:16:35.216 : en:Chapter 24
    01:18:52.227 : en:Chapter 25
    01:22:48.297 : en:Chapter 26
    01:24:55.340 : en:Chapter 27
    01:28:25.217 : en:Chapter 28
    01:33:18.551 : en:Chapter 29
    01:36:08.763 : en:Chapter 30
    01:41:54.692 : en:Chapter 31
    01:45:23.442 : en:Chapter 32
    01:48:16.490 : en:Chapter 33
    01:51:43.655 : en:Chapter 34
    01:54:43.668 : en:Chapter 35
    01:56:51.504 : en:Chapter 36

    _________________
    Показать сообщения:    
    Главная  Кинофильмы  Зарубежные кинофильмы  HD

    Текущее время: 10-Дек 11:06

    Часовой пояс: UTC + 5



    Вы не можете начинать темы
    Вы не можете отвечать на сообщения
    Вы не можете редактировать свои сообщения
    Вы не можете удалять свои сообщения
    Вы не можете голосовать в опросах
    Вы не можете прикреплять файлы к сообщениям
    Вы не можете скачивать файлы