Атака Титанов 2 / Вторжение титанов 2 / Shingeki no Kyojin TV2 (Араки Тэцуро) [2-Сезон] [Серии 1-12 из 12] [2017, Приключения, фантастика, экшен, драма, фэнтези, детектив, BDRip-HEVC 1080p 10 bit][Wakanim][Kansai][Original] :: UZTOR.PW Трекер для всех
Регистрация ·
Имя: Пароль:  
· Забыли пароль?

Навигация по Торрент раздачам и Форум

 Атака Титанов 2 / Вторжение титанов 2 / Shingeki no Kyojin TV2 (Араки Тэцуро) [2-Сезон] [Серии 1-12 из 12] [2017, Приключения, фантастика, экшен, драма, фэнтези, детектив, BDRip-HEVC 1080p 10 bit][Wakanim][Kansai][Original]

Главная  Аниме  Сериалы  Аниме Сериалы (HD)
Статистика раздачи
Нет
 
     
 
 
Автор Сообщение
  • -InVoKeR- ®
  • Не в сети
  • 5057
  • VIP пользователь

  • Пол: Мужской

  • Стаж: 9 месяцев 5 дней

  • Сообщений: 286

  • Откуда: uztor.pw

  • Провайдер: UzOnline UzOnline

  • Тарифный план: Unlim 4 (99к, Мир: 4 Мбит/с, Tas-ix: 100Мбит/с)

  • Карма: 1118


  • Создавать темы 11-Июл-2019 10:09

    Атака Титанов / Вторжение титанов / Shingeki no Kyojin--
    Год выпуска: 2017
    Страна: Япония
    Студия: Wit Studio, Production I.G
    Жанр: экшен, драма, фэнтези, военное, детектив, сёнен
    Количество эпизодов: 1 - 12 из 12
    Продолжительность: 12х 25 мин-Переводы:
    Дубляж | StudioBand [Wakanim]
    Любительский многоголосый [Kansai]-Режиссер: Тэцуро Араки-В ролях: Юки Кадзи, Юи Исикава, Марина Иноуэ, Хироси Камия, Ю Кобаяси, Пак Роми, Ю, Симамура, Кисё Танияма, Даисукэ Оно, Саки Фудзита-О фильме: Несколько сотен лет назад человечество было почти уничтожено титанами — огромными человекоподобными существами, которые не обладают интеллектом, но пожирают людей и, что хуже всего, делают это ради удовольствия, а не от чувства голода. Небольшой процент человечества выжил, возведя три высокие стены, окружившие мир людей, через которые не пройдут даже ужасные гиганты. Прошло два сезона, а титанам всё нет конца. В третьем же сезоне будет экранизирована арка «Восстание» оригинальной манги за авторством Хадзимэ Исаямы.
    Наши герои возвращаются после важной миссии по возвращению Эрена. Но приехав в город, они сталкиваются с новой угрозой — высшим правительством. После убийства пастора Ника ситуация внутри стен заметно накаляется. Зная, что действия монархии сильно угрожают человечеству, Эрвин Смит начинает подготовку к свержению старого правительства, а после — назначении Кристы новой королевой.
    -
    -Дополнительная Информация:
    Сценарий: Хадзимэ Исаяма, Ясуко Кобаяси, Кодзи Сэко
    Продюсер: Син Фурукава, Тэцуя Киносита, Тосихиро Маэда
    Оператор: Кадзухиро Ямада
    Композитор: Хироюки Савано, Ёсики Хаяси
    Художник: Сюнъитиро Ёсивара
    Монтаж: Ая Хида-Возраст: 16+ (зрителям, достигшим 16 лет)-Дата мировой премьеры: 7 апреля 2013
    Дата российской премьеры: 23 сентября 2014-Качество: BDRip-HEVC 1080p
    Формат: MKV
    Видео: HEVC, 1920x1080, 2302 kbps, 23.976 fps
    Аудио#1: (Rus(int)): AC-3, 192 kbps, 48,0 KHz, 2 ch | [StudioBand]
    Аудио#2: (Rus(int)): AC-3, 192 kbps, 48,0 KHz, 2 ch | [Kansai]
    Аудио#3: (Japanese): AC-3, 192 kbps, 48,0 KHz, 2 ch | [Original]
    Субтитры: русские (встроенные полный перевод, ASS)--

    MediaInfo

    General
    Unique ID : 296087323791485232794761960937056267522 (0xDEC0582454736644CF03AFCDF41E6D02)
    Complete name : Shingeki no Kyojin S02 BDRip-HEVC 1080p\Shingeki no Kyojin 26 [x265].mkv
    Format : Matroska
    Format version : Version 4
    File size : 500 MiB
    Duration : 24 min 12 s
    Overall bit rate : 2 887 kb/s
    Encoded date : UTC 2019-05-01 00:37:33
    Writing application : mkvmerge v33.0.0 ('A Little Bit of Madness') 64-bit
    Writing library : libebml v1.3.7 + libmatroska v1.5.0
    Attachments : Cardo-Regular.ttf / Clearface_SSi_Bold.ttf / CronosPro-SemiboldDisp.otf / CronosPro-SemiboldDispIt.otf / FeENrm28C.otf / HANSG_.ttf / KinesisStd-BlackItalic.otf / Painty_Paint.ttf / Senor Domingo.ttf / SPLAT.ttf
    Video
    ID : 1
    Format : HEVC
    Format/Info : High Efficiency Video Coding
    Format profile : Main 10@L5.1@Main
    Codec ID : V_MPEGH/ISO/HEVC
    Duration : 24 min 12 s
    Bit rate : 2 302 kb/s
    Width : 1 920 pixels
    Height : 1 080 pixels
    Display aspect ratio : 16:9
    Frame rate mode : Constant
    Frame rate : 23.976 (24000/1001) FPS
    Color space : YUV
    Chroma subsampling : 4:2:0
    Bit depth : 10 bits
    Bits/(Pixel*Frame) : 0.046
    Stream size : 398 MiB (80%)
    Writing library : x265 2.4+27-e9e574bbed93:[Windows][GCC 6.3.0][64 bit] 10bit
    Encoding settings : cpuid=1173503 / frame-threads=2 / numa-pools=4 / wpp / no-pmode / no-pme / no-psnr / no-ssim / log-level=2 / input-csp=1 / input-res=1920x1080 / interlace=0 / total-frames=34814 / level-idc=51 / high-tier=0 / uhd-bd=0 / ref=2 / no-allow-non-conformance / no-repeat-headers / annexb / no-aud / no-hrd / info / hash=1 / no-temporal-layers / open-gop / min-keyint=23 / keyint=250 / bframes=4 / b-adapt=2 / b-pyramid / bframe-bias=0 / rc-lookahead=15 / lookahead-slices=0 / scenecut=40 / no-intra-refresh / ctu=32 / min-cu-size=8 / no-rect / no-amp / max-tu-size=32 / tu-inter-depth=1 / tu-intra-depth=1 / limit-tu=0 / rdoq-level=0 / dynamic-rd=0.00 / no-ssim-rd / signhide / no-tskip / nr-intra=0 / nr-inter=0 / no-constrained-intra / strong-intra-smoothing / max-merge=2 / limit-refs=0 / no-limit-modes / me=3 / subme=2 / merange=57 / temporal-mvp / weightp / no-weightb / no-analyze-src-pics / deblock=0:0 / sao / no-sao-non-deblock / rd=2 / early-skip / no-rskip / fast-intra / no-tskip-fast / no-cu-lossless / no-b-intra / rdpenalty=0 / psy-rd=0.40 / psy-rdoq=0.00 / no-rd-refine / analysis-mode=0 / no-lossless / cbqpoffs=0 / crqpoffs=0 / rc=crf / crf=24.0 / qcomp=0.70 / qpstep=4 / stats-write=0 / stats-read=0 / vbv-maxrate=40000 / vbv-bufsize=40000 / vbv-init=0.9 / crf-max=0.0 / crf-min=0.0 / ipratio=1.40 / pbratio=1.30 / aq-mode=2 / aq-strength=0.60 / no-cutree / zone-count=0 / no-strict-cbr / qg-size=32 / no-rc-grain / qpmax=69 / qpmin=0 / sar=0 / overscan=0 / videoformat=5 / range=0 / colorprim=1 / transfer=1 / colormatrix=1 / chromaloc=0 / display-window=0 / max-cll=0,0 / min-luma=0 / max-luma=1023 / log2-max-poc-lsb=8 / vui-timing-info / vui-hrd-info / slices=1 / opt-qp-pps / opt-ref-list-length-pps / no-multi-pass-opt-rps / scenecut-bias=0.05 / no-opt-cu-delta-qp / no-aq-motion / no-hdr / no-hdr-opt / no-dhdr10-opt / refine-level=5 / no-limit-sao / ctu-info=0
    Default : Yes
    Forced : No
    Color range : Limited
    Color primaries : BT.709
    Transfer characteristics : BT.709
    Matrix coefficients : BT.709
    Audio #1
    ID : 2
    Format : AC-3
    Format/Info : Audio Coding 3
    Commercial name : Dolby Digital
    Codec ID : A_AC3
    Duration : 24 min 10 s
    Bit rate mode : Constant
    Bit rate : 192 kb/s
    Channel(s) : 2 channels
    Channel layout : L R
    Sampling rate : 48.0 kHz
    Frame rate : 31.250 FPS (1536 SPF)
    Bit depth : 16 bits
    Compression mode : Lossy
    Stream size : 33.2 MiB (7%)
    Language : Russian
    Service kind : Complete Main
    Default : Yes
    Forced : No
    Audio #2
    ID : 3
    Format : AC-3
    Format/Info : Audio Coding 3
    Commercial name : Dolby Digital
    Codec ID : A_AC3
    Duration : 24 min 11 s
    Bit rate mode : Constant
    Bit rate : 192 kb/s
    Channel(s) : 2 channels
    Channel layout : L R
    Sampling rate : 48.0 kHz
    Frame rate : 31.250 FPS (1536 SPF)
    Bit depth : 16 bits
    Compression mode : Lossy
    Stream size : 33.2 MiB (7%)
    Language : Russian
    Service kind : Complete Main
    Default : No
    Forced : No
    Audio #3
    ID : 5
    Format : AC-3
    Format/Info : Audio Coding 3
    Commercial name : Dolby Digital
    Codec ID : A_AC3
    Duration : 24 min 12 s
    Bit rate mode : Constant
    Bit rate : 192 kb/s
    Channel(s) : 2 channels
    Channel layout : L R
    Sampling rate : 48.0 kHz
    Frame rate : 31.250 FPS (1536 SPF)
    Bit depth : 16 bits
    Compression mode : Lossy
    Stream size : 33.2 MiB (7%)
    Language : Japanese
    Service kind : Complete Main
    Default : No
    Forced : No
    Text #1
    ID : 4
    Format : ASS
    Codec ID : S_TEXT/ASS
    Codec ID/Info : Advanced Sub Station Alpha
    Duration : 19 min 58 s
    Bit rate : 6 b/s
    Count of elements : 6
    Compression mode : Lossless
    Stream size : 910 Bytes (0%)
    Language : Russian
    Default : Yes
    Forced : No
    Text #2
    ID : 6
    Format : ASS
    Codec ID : S_TEXT/ASS
    Codec ID/Info : Advanced Sub Station Alpha
    Duration : 23 min 56 s
    Bit rate : 102 b/s
    Count of elements : 242
    Compression mode : Lossless
    Stream size : 17.9 KiB (0%)
    Language : Russian
    Default : No
    Forced : No
    Menu
    00:00:00.000 : en:Avant
    00:02:42.037 : en:OP
    00:04:12.002 : en:Part A
    00:14:42.006 : en:Part B
    00:22:09.995 : en:ED
    00:23:40.002 : en:Next
    Показать сообщения:    
    Главная  Аниме  Сериалы  Аниме Сериалы (HD)

    Текущее время: 22-Авг 19:50

    Часовой пояс: UTC + 5



    Вы не можете начинать темы
    Вы не можете отвечать на сообщения
    Вы не можете редактировать свои сообщения
    Вы не можете удалять свои сообщения
    Вы не можете голосовать в опросах
    Вы не можете прикреплять файлы к сообщениям
    Вы не можете скачивать файлы