Дьяволица 2 / Devi 2 (А. Л. Виджай / A.L. Vijay) [2019, Комедия, мистика, WEB-DL 1080p] :: UZTOR.PW Трекер для всех
Регистрация ·
Имя: Пароль:  
· Забыли пароль?

Навигация по Торрент раздачам и Форум

 Дьяволица 2 / Devi 2 (А. Л. Виджай / A.L. Vijay) [2019, Комедия, мистика, WEB-DL 1080p]

Главная  Кинофильмы  Индийские кинофильмы
Статистика раздачи
Нет
 
     
 
 
Автор Сообщение
  • NuRKHoNoFF ®
  • Не в сети
  • 5064
  • Пол: Мужской

  • Стаж: 8 месяцев 4 дня

  • Сообщений: 530

  • Откуда: Каттакурган

  • Провайдер: TPS TPS

  • Карма: 547


  • Создавать темы 11-Июл-2019 01:48

    Дьяволица 2 / Devi 2 -Год выпуска: 2019
    Страна: Индия
    Жанр: Комедия, мистика
    Продолжительность: 01:58:54
    Перевод: Любительский (двухголосый, закадровый) [OnisFilms]-Субтитры: Английские-Режиссер: А. Л. Виджай / A.L. Vijay-В ролях: Прабхудева, Таманна Бхатия, Нандита, Аджмал Амир, АрДжей Баладжи, Коваи Сарала, Даршан Джаривала, Сону Суд-Описание: Любящая жена пытается спасти мужа, в которого вселились два духа.--Качество: WEB-DL 1080p
    Формат: MKV
    Видео: MPEG-4 AVC, 5900 Кбит/с, 1920x816
    Аудио №1: AAC, 2 ch, 192 Кбит/с | RUS
    Аудио №2: ЕАС3, 6 ch, 640 Кбит/с | TAMIL-

    MediaInfo

    General
    Unique ID : 228170325594160480522999459119117489589 (0xABA801997C096F3E3974F338F06DD5B5)
    Complete name : Devi 2 (2019) WEB-DL 1080p x264 Rus.mkv
    Format : Matroska
    Format version : Version 4
    File size : 5.53 GiB
    Duration : 1 h 58 min
    Overall bit rate : 6 663 kb/s
    Encoded date : UTC 2019-07-10 15:32:06
    Writing application : mkvmerge v35.0.0 ('All The Love In The World') 64-bit
    Writing library : libebml v1.3.9 + libmatroska v1.5.2
    Video
    ID : 1
    Format : AVC
    Format/Info : Advanced Video Codec
    Format profile : High@L5.2
    Format settings : CABAC / 4 Ref Frames
    Format settings, CABAC : Yes
    Format settings, ReFrames : 4 frames
    Codec ID : V_MPEG4/ISO/AVC
    Duration : 1 h 58 min
    Bit rate : 5 900 kb/s
    Width : 1 920 pixels
    Height : 816 pixels
    Display aspect ratio : 2.35:1
    Frame rate mode : Constant
    Frame rate : 25.000 FPS
    Color space : YUV
    Chroma subsampling : 4:2:0
    Bit depth : 8 bits
    Scan type : Progressive
    Bits/(Pixel*Frame) : 0.151
    Stream size : 4.84 GiB (87%)
    Writing library : x264 core 155 r2901 7d0ff22
    Encoding settings : cabac=1 / ref=1 / deblock=1:0:0 / analyse=0x3:0x113 / me=hex / subme=2 / psy=1 / psy_rd=1.00:0.00 / mixed_ref=0 / me_range=16 / chroma_me=1 / trellis=0 / 8x8dct=1 / cqm=0 / deadzone=21,11 / fast_pskip=1 / chroma_qp_offset=0 / threads=25 / lookahead_threads=6 / sliced_threads=0 / nr=0 / decimate=1 / interlaced=0 / bluray_compat=0 / constrained_intra=0 / bframes=3 / b_pyramid=2 / b_adapt=1 / b_bias=0 / direct=1 / weightb=1 / open_gop=0 / weightp=1 / keyint=250 / keyint_min=25 / scenecut=40 / intra_refresh=0 / rc_lookahead=10 / rc=abr / mbtree=1 / bitrate=5900 / ratetol=1.0 / qcomp=0.60 / qpmin=0 / qpmax=69 / qpstep=4 / vbv_maxrate=300000 / vbv_bufsize=300000 / nal_hrd=none / filler=0 / ip_ratio=1.40 / aq=1:1.00
    Default : Yes
    Forced : No
    Color range : Limited
    Color primaries : BT.709
    Transfer characteristics : BT.709
    Matrix coefficients : BT.709
    Audio #1
    ID : 2
    Format : AAC LC
    Format/Info : Advanced Audio Codec Low Complexity
    Codec ID : A_AAC-2
    Duration : 1 h 58 min
    Bit rate : 192 kb/s
    Channel(s) : 2 channels
    Channel layout : L R
    Sampling rate : 48.0 kHz
    Frame rate : 46.875 FPS (1024 SPF)
    Compression mode : Lossy
    Stream size : 162 MiB (3%)
    Title : Любительский (двухголосый, закадровый) - OnisFilms
    Language : Russian
    Default : No
    Forced : No
    Audio #2
    ID : 3
    Format : E-AC-3
    Format/Info : Enhanced AC-3
    Commercial name : Dolby Digital Plus
    Codec ID : A_EAC3
    Duration : 1 h 58 min
    Bit rate mode : Constant
    Bit rate : 640 kb/s
    Channel(s) : 6 channels
    Channel layout : L R C LFE Ls Rs
    Sampling rate : 48.0 kHz
    Frame rate : 31.250 FPS (1536 SPF)
    Compression mode : Lossy
    Stream size : 544 MiB (10%)
    Language : Tamil
    Service kind : Complete Main
    Default : Yes
    Forced : No
    Text
    ID : 4
    Format : UTF-8
    Codec ID : S_TEXT/UTF8
    Codec ID/Info : UTF-8 Plain Text
    Duration : 1 h 56 min
    Bit rate : 65 b/s
    Count of elements : 1957
    Stream size : 56.4 KiB (0%)
    Language : English
    Default : Yes
    Forced : No

    _________________
    Показать сообщения:    
    Главная  Кинофильмы  Индийские кинофильмы

    Текущее время: 22-Авг 19:52

    Часовой пояс: UTC + 5



    Вы не можете начинать темы
    Вы не можете отвечать на сообщения
    Вы не можете редактировать свои сообщения
    Вы не можете удалять свои сообщения
    Вы не можете голосовать в опросах
    Вы не можете прикреплять файлы к сообщениям
    Вы не можете скачивать файлы