Атака Титанов / Вторжение титанов / Shingeki no Kyojin (Араки Тэцуро) [1-Сезон] [Серии 1-25 из 25] [2013, Приключения, фантастика, экшен, драма, фэнтези, детектив, BDRip-HEVC 1080p][Wakanim][Kansai][Original] :: UZTOR.PW Лучший трекер в зоне TAS-IX!
Регистрация ·
Имя: Пароль:  
· Забыли пароль?

Навигация по Торрент раздачам и Форум

 Атака Титанов / Вторжение титанов / Shingeki no Kyojin (Араки Тэцуро) [1-Сезон] [Серии 1-25 из 25] [2013, Приключения, фантастика, экшен, драма, фэнтези, детектив, BDRip-HEVC 1080p][Wakanim][Kansai][Original]

Главная  Аниме  Сериалы  Аниме Сериалы (HD)
Статистика раздачи
Нет
 
     
 
 
Автор Сообщение
  • -InVoKeR- ®
  • Не в сети
  • 5057
  • VIP пользователь

  • Пол: Мужской

  • Стаж: 11 месяцев 5 дней

  • Сообщений: 300

  • Откуда: uztor.pw

  • Провайдер: UzOnline UzOnline

  • Тарифный план: Unlim 4 (Мир: 4 Мбит/с, Tas-ix: 100Мбит/с)

  • Steam: 76561198442747843

  • Telegram: i_Invoker

  • Карма: 1128


  • Наличие запрета:

  • Награды: 22 (Подробнее)
    Admin (Количество: 1) Авторитет (Количество: 1) Активный релизер 1 (Количество: 1) Активный релизер 2 (Количество: 1) Активный сидер 1 (Количество: 1)
  • Создавать темы 09-Июл-2019 12:41

    Атака Титанов / Вторжение титанов / Shingeki no Kyojin--
    Год выпуска: 2013
    Страна: Япония
    Студия: Wit Studio, Production I.G
    Жанр: экшен, драма, фэнтези, военное, детектив, сёнен
    Количество эпизодов: 1 - 25 из 25
    Продолжительность: 25х 25 мин-Переводы:
    Дубляж | StudioBand [Wakanim]
    Любительский многоголосый [Kansai]-Режиссер: Тэцуро Араки-В ролях: Юки Кадзи, Юи Исикава, Марина Иноуэ, Хироси Камия, Ю Кобаяси, Пак Роми, Ю, Симамура, Кисё Танияма, Даисукэ Оно, Саки Фудзита-О фильме: Несколько сотен лет назад человечество было почти уничтожено титанами — огромными человекоподобными существами, которые не обладают интеллектом, но пожирают людей и, что хуже всего, делают это ради удовольствия, а не от чувства голода. Небольшой процент человечества выжил, возведя три высокие стены, окружившие мир людей, через которые не пройдут даже ужасные гиганты. Прошло два сезона, а титанам всё нет конца. В третьем же сезоне будет экранизирована арка «Восстание» оригинальной манги за авторством Хадзимэ Исаямы.
    Наши герои возвращаются после важной миссии по возвращению Эрена. Но приехав в город, они сталкиваются с новой угрозой — высшим правительством. После убийства пастора Ника ситуация внутри стен заметно накаляется. Зная, что действия монархии сильно угрожают человечеству, Эрвин Смит начинает подготовку к свержению старого правительства, а после — назначении Кристы новой королевой.
    -
    -Дополнительная Информация:
    Сценарий: Хадзимэ Исаяма, Ясуко Кобаяси, Кодзи Сэко
    Продюсер: Син Фурукава, Тэцуя Киносита, Тосихиро Маэда
    Оператор: Кадзухиро Ямада
    Композитор: Хироюки Савано, Ёсики Хаяси
    Художник: Сюнъитиро Ёсивара
    Монтаж: Ая Хида-Возраст: 16+ (зрителям, достигшим 16 лет)-Дата мировой премьеры: 7 апреля 2013
    Дата российской премьеры: 23 сентября 2014-Качество: BDRip-HEVC 1080p
    Формат: MKV
    Видео: HEVC, 1920x1080, 1823 kbps, 23.976 fps
    Аудио#1: (Rus(int)): AC-3, 192 kbps, 48,0 KHz, 2 ch | [StudioBand]
    Аудио#2: (Rus(int)): AC-3, 192 kbps, 48,0 KHz, 2 ch | [Kansai]
    Аудио#3: (Japanese): AC-3, 192 kbps, 48,0 KHz, 2 ch | [Original]
    Субтитры: русские (встроенные полный перевод, ASS)--

    MediaInfo

    General
    Unique ID : 72502406546107138222544331297464208827 (0x368B74A0F0498BCEFF23B3BA1F734DBB)
    Complete name : Shingeki no Kyojin S01 BDRip-HEVC 1080p\Shingeki no Kyojin 01 [x265].mkv
    Format : Matroska
    Format version : Version 4
    File size : 453 MiB
    Duration : 25 min 40 s
    Overall bit rate : 2 467 kb/s
    Movie name : [SCY] Attack on Titan - 01 (BD 1080p Hi10 FLAC)
    Encoded date : UTC 2019-05-01 00:28:20
    Writing application : mkvmerge v33.0.0 ('A Little Bit of Madness') 64-bit
    Writing library : libebml v1.3.7 + libmatroska v1.5.0
    Attachments : AmazObitaemOstrovCrazy!.ttf / Cardo-Regular.ttf / CENTURY.ttf / LLCOOPER.ttf / msmincho.ttc / ObeliskMdITC TT.ttf / Openc.ttf / Volkhov-BoldItalic.ttf / Volkhov-Regular.ttf / AmazOOSTROVCrazy!.ttf / aparajb.ttf / IwaNGoPro-Md-AW.ttf / KozMinPro-Regular.ttf / LIDSTFCE.ttf / META-MEDIUM-ROMAN.ttf / Openc_.ttf / plantc.ttf / Vnthfapf.ttf / Volkhov-Italic.ttf / Openc_.TTF / LLCOOPER.TTF / CENTURY.TTF
    Video
    ID : 1
    Format : HEVC
    Format/Info : High Efficiency Video Coding
    Format profile : Main 10@L5.1@Main
    Codec ID : V_MPEGH/ISO/HEVC
    Duration : 25 min 40 s
    Bit rate : 1 823 kb/s
    Width : 1 920 pixels
    Height : 1 080 pixels
    Display aspect ratio : 16:9
    Frame rate mode : Constant
    Frame rate : 23.976 (24000/1001) FPS
    Color space : YUV
    Chroma subsampling : 4:2:0
    Bit depth : 10 bits
    Bits/(Pixel*Frame) : 0.037
    Stream size : 335 MiB (74%)
    Writing library : x265 2.4+27-e9e574bbed93:[Windows][GCC 6.3.0][64 bit] 10bit
    Encoding settings : cpuid=1173503 / frame-threads=2 / numa-pools=4 / wpp / no-pmode / no-pme / no-psnr / no-ssim / log-level=2 / input-csp=1 / input-res=1920x1080 / interlace=0 / total-frames=36946 / level-idc=51 / high-tier=0 / uhd-bd=0 / ref=2 / no-allow-non-conformance / no-repeat-headers / annexb / no-aud / no-hrd / info / hash=1 / no-temporal-layers / open-gop / min-keyint=23 / keyint=250 / bframes=4 / b-adapt=2 / b-pyramid / bframe-bias=0 / rc-lookahead=15 / lookahead-slices=0 / scenecut=40 / no-intra-refresh / ctu=32 / min-cu-size=8 / no-rect / no-amp / max-tu-size=32 / tu-inter-depth=1 / tu-intra-depth=1 / limit-tu=0 / rdoq-level=0 / dynamic-rd=0.00 / no-ssim-rd / signhide / no-tskip / nr-intra=0 / nr-inter=0 / no-constrained-intra / strong-intra-smoothing / max-merge=2 / limit-refs=0 / no-limit-modes / me=3 / subme=2 / merange=57 / temporal-mvp / weightp / no-weightb / no-analyze-src-pics / deblock=0:0 / sao / no-sao-non-deblock / rd=2 / early-skip / no-rskip / fast-intra / no-tskip-fast / no-cu-lossless / no-b-intra / rdpenalty=0 / psy-rd=0.40 / psy-rdoq=0.00 / no-rd-refine / analysis-mode=0 / no-lossless / cbqpoffs=0 / crqpoffs=0 / rc=crf / crf=24.0 / qcomp=0.70 / qpstep=4 / stats-write=0 / stats-read=0 / vbv-maxrate=40000 / vbv-bufsize=40000 / vbv-init=0.9 / crf-max=0.0 / crf-min=0.0 / ipratio=1.40 / pbratio=1.30 / aq-mode=2 / aq-strength=0.60 / no-cutree / zone-count=0 / no-strict-cbr / qg-size=32 / no-rc-grain / qpmax=69 / qpmin=0 / sar=0 / overscan=0 / videoformat=5 / range=0 / colorprim=1 / transfer=1 / colormatrix=1 / chromaloc=0 / display-window=0 / max-cll=0,0 / min-luma=0 / max-luma=1023 / log2-max-poc-lsb=8 / vui-timing-info / vui-hrd-info / slices=1 / opt-qp-pps / opt-ref-list-length-pps / no-multi-pass-opt-rps / scenecut-bias=0.05 / no-opt-cu-delta-qp / no-aq-motion / no-hdr / no-hdr-opt / no-dhdr10-opt / refine-level=5 / no-limit-sao / ctu-info=0
    Default : Yes
    Forced : No
    Color range : Limited
    Color primaries : BT.709
    Transfer characteristics : BT.709
    Matrix coefficients : BT.709
    Audio #1
    ID : 2
    Format : AC-3
    Format/Info : Audio Coding 3
    Commercial name : Dolby Digital
    Codec ID : A_AC3
    Duration : 25 min 39 s
    Bit rate mode : Constant
    Bit rate : 192 kb/s
    Channel(s) : 2 channels
    Channel layout : L R
    Sampling rate : 48.0 kHz
    Frame rate : 31.250 FPS (1536 SPF)
    Bit depth : 16 bits
    Compression mode : Lossy
    Stream size : 35.2 MiB (8%)
    Language : Russian
    Service kind : Complete Main
    Default : Yes
    Forced : No
    Audio #2
    ID : 3
    Format : AC-3
    Format/Info : Audio Coding 3
    Commercial name : Dolby Digital
    Codec ID : A_AC3
    Duration : 25 min 40 s
    Bit rate mode : Constant
    Bit rate : 192 kb/s
    Channel(s) : 2 channels
    Channel layout : L R
    Sampling rate : 48.0 kHz
    Frame rate : 31.250 FPS (1536 SPF)
    Bit depth : 16 bits
    Compression mode : Lossy
    Stream size : 35.3 MiB (8%)
    Language : Russian
    Service kind : Complete Main
    Default : No
    Forced : No
    Audio #3
    ID : 5
    Format : AC-3
    Format/Info : Audio Coding 3
    Commercial name : Dolby Digital
    Codec ID : A_AC3
    Duration : 25 min 40 s
    Bit rate mode : Constant
    Bit rate : 192 kb/s
    Channel(s) : 2 channels
    Channel layout : L R
    Sampling rate : 48.0 kHz
    Frame rate : 31.250 FPS (1536 SPF)
    Bit depth : 16 bits
    Compression mode : Lossy
    Stream size : 35.3 MiB (8%)
    Language : Japanese
    Service kind : Complete Main
    Default : No
    Forced : No
    Text #1
    ID : 4
    Format : ASS
    Codec ID : S_TEXT/ASS
    Codec ID/Info : Advanced Sub Station Alpha
    Duration : 23 min 29 s
    Bit rate : 33 b/s
    Count of elements : 56
    Compression mode : Lossless
    Stream size : 5.79 KiB (0%)
    Language : Russian
    Default : Yes
    Forced : No
    Text #2
    ID : 6
    Format : ASS
    Codec ID : S_TEXT/ASS
    Codec ID/Info : Advanced Sub Station Alpha
    Duration : 25 min 14 s
    Bit rate : 156 b/s
    Count of elements : 369
    Compression mode : Lossless
    Stream size : 29.0 KiB (0%)
    Language : Russian
    Default : No
    Forced : No
    Menu
    00:00:00.000 : :Prologue
    00:02:02.998 : :Opening
    00:03:35.006 : :Part A
    00:12:34.003 : :Part B
    00:23:54.975 : :Ending
    00:25:24.940 : :Preview

    _________________
    Показать сообщения:    
    Главная  Аниме  Сериалы  Аниме Сериалы (HD)

    Текущее время: 22-Окт 17:42

    Часовой пояс: UTC + 5



    Вы не можете начинать темы
    Вы не можете отвечать на сообщения
    Вы не можете редактировать свои сообщения
    Вы не можете удалять свои сообщения
    Вы не можете голосовать в опросах
    Вы не можете прикреплять файлы к сообщениям
    Вы не можете скачивать файлы