Хеллбой / Hellboy (Нил Маршалл / Neil Marshall) [2019, Фэнтези, боевик, приключения, WEB-DL 1080p] iTunes :: UZTOR.PW Лучший трекер в зоне TAS-IX!
Регистрация ·
Имя: Пароль:  
· Забыли пароль?

Навигация по Торрент раздачам и Форум

 Хеллбой / Hellboy (Нил Маршалл / Neil Marshall) [2019, Фэнтези, боевик, приключения, WEB-DL 1080p] iTunes

Главная  Кинофильмы  Зарубежные кинофильмы  HD
Статистика раздачи
Нет
 
     
 
 
Автор Сообщение
  • NuRKHoNoFF ®
  • Не в сети
  • 5064
  • Пол: Мужской

  • Стаж: 10 месяцев 4 дня

  • Сообщений: 737

  • Откуда: Каттакурган

  • Провайдер: TPS TPS

  • Карма: 574


  • Наличие запрета:

  • Награды: 17 (Подробнее)
    Активный релизер 1 (Количество: 1) Активный релизер 2 (Количество: 1) Активный релизер 3 (Количество: 1) Активный релизер 4 (Количество: 1) Активный релизер 5 (Количество: 1)
  • Создавать темы 09-Июл-2019 04:07

    Хеллбой / Hellboy -Год выпуска: 2019
    Страна: США
    Жанр: Фэнтези, боевик, приключения
    Продолжительность: 02:00:47
    Перевод №1: Дублированный [iTunes]
    Перевод №2: Профессиональный (многоголосый) [СВ Студия]-Режиссер: Нил Маршалл / Neil Marshall-В ролях: Дэвид Харбор, Иэн МакШейн, Милла Йовович, Саша Лэйн, Дэниэл Дэ Ким, Алистэр Петри, Софи Оконедо, Томас Хейден Чёрч, Марк Стэнли, Брин Глисон, Надя Керанова, Мария Тепавичарова, Ана Тобакова, Пенелопа Митчелл, Терри Рендал, Стивен Грэм, Марио де ла Роса, Ванесса Эйчхольц-Описание: Близится час битвы Хеллбоя с Кровавой королевой, жаждущей отомстить всему человечеству за века в заточении. Оказавшись в эпицентре столкновения миров людей и монстров, Хеллбою придется пройти через ад, чтобы предотвратить надвигающийся апокалипсис.- -Качество: WEB-DL 1080p
    Формат: MKV
    Видео: MPEG-4 AVC, 1908x794, 4537 Kbit/s, 23.976 fps
    Аудио №1: 48 kHz, AC3, 5.1, 384 Kbps | iTunes | RUS
    Аудио №2: 48 kHz, AC3, 2.0, 192 Kbps | СВ Студия | RUS
    Аудио №3: 48 kHz, AC3, 2.0, 384 Kbps | Оригинал | ENG-

    MediaInfo

    General
    Unique ID : 239025214624509934514775215802135285264 (0xB3D294F2DE910958D06141F49E130E10)
    Complete name : Hellboy.2019.D.MVO.WEB-DL.1080p.seleZen.mkv
    Format : Matroska
    Format version : Version 4
    File size : 4.64 GiB
    Duration : 2 h 0 min
    Overall bit rate : 5 499 kb/s
    Movie name : Hellboy 2019 from селезень
    Encoded date : UTC 2019-07-08 19:26:45
    Writing application : mkvmerge v35.0.0 ('All The Love In The World') 64-bit
    Writing library : libebml v1.3.9 + libmatroska v1.5.2
    Video
    ID : 1
    Format : AVC
    Format/Info : Advanced Video Codec
    Format profile : High@L4
    Format settings : CABAC / 5 Ref Frames
    Format settings, CABAC : Yes
    Format settings, Reference : 5 frames
    Codec ID : V_MPEG4/ISO/AVC
    Duration : 2 h 0 min
    Bit rate : 4 537 kb/s
    Width : 1 908 pixels
    Height : 794 pixels
    Display aspect ratio : 2.40:1
    Frame rate mode : Constant
    Frame rate : 23.976 (24000/1001) FPS
    Color space : YUV
    Chroma subsampling : 4:2:0
    Bit depth : 8 bits
    Scan type : Progressive
    Bits/(Pixel*Frame) : 0.125
    Stream size : 3.83 GiB (83%)
    Language : English
    Default : Yes
    Forced : No
    Color range : Limited
    Color primaries : BT.709
    Transfer characteristics : BT.709
    Matrix coefficients : BT.709
    Audio #1
    ID : 2
    Format : AC-3
    Format/Info : Audio Coding 3
    Commercial name : Dolby Digital
    Codec ID : A_AC3
    Duration : 2 h 0 min
    Bit rate mode : Constant
    Bit rate : 384 kb/s
    Channel(s) : 6 channels
    Channel layout : L R C LFE Ls Rs
    Sampling rate : 48.0 kHz
    Frame rate : 31.250 FPS (1536 SPF)
    Bit depth : 16 bits
    Compression mode : Lossy
    Stream size : 332 MiB (7%)
    Title : iTunes
    Language : Russian
    Service kind : Complete Main
    Default : Yes
    Forced : Yes
    Audio #2
    ID : 3
    Format : AC-3
    Format/Info : Audio Coding 3
    Commercial name : Dolby Digital
    Codec ID : A_AC3
    Duration : 2 h 0 min
    Bit rate mode : Constant
    Bit rate : 192 kb/s
    Channel(s) : 2 channels
    Channel layout : L R
    Sampling rate : 48.0 kHz
    Frame rate : 31.250 FPS (1536 SPF)
    Bit depth : 16 bits
    Compression mode : Lossy
    Stream size : 166 MiB (3%)
    Title : MVO [СВ Студия]
    Language : Russian
    Service kind : Complete Main
    Default : No
    Forced : No
    Audio #3
    ID : 4
    Format : AC-3
    Format/Info : Audio Coding 3
    Commercial name : Dolby Digital
    Codec ID : A_AC3
    Duration : 2 h 0 min
    Bit rate mode : Constant
    Bit rate : 384 kb/s
    Channel(s) : 2 channels
    Channel layout : L R
    Sampling rate : 48.0 kHz
    Frame rate : 31.250 FPS (1536 SPF)
    Bit depth : 16 bits
    Compression mode : Lossy
    Delay relative to video : 5 s 200 ms
    Stream size : 331 MiB (7%)
    Title : Original
    Language : English
    Service kind : Complete Main
    Default : No
    Forced : No
    Menu
    00:00:00.000 : en:1
    00:02:41.000 : en:2
    00:14:28.000 : en:3
    00:26:36.000 : en:4
    00:35:34.000 : en:5
    00:43:37.000 : en:6
    00:55:01.000 : en:7
    01:02:12.000 : en:8
    01:12:04.000 : en:9
    01:25:54.000 : en:10
    01:34:17.000 : en:11
    01:48:05.000 : en:12

    _________________
    Показать сообщения:    
    Главная  Кинофильмы  Зарубежные кинофильмы  HD

    Текущее время: 22-Окт 17:56

    Часовой пояс: UTC + 5



    Вы не можете начинать темы
    Вы не можете отвечать на сообщения
    Вы не можете редактировать свои сообщения
    Вы не можете удалять свои сообщения
    Вы не можете голосовать в опросах
    Вы не можете прикреплять файлы к сообщениям
    Вы не можете скачивать файлы