Шазам! / Shazam! (Дэвид Ф. Сандберг / David F. Sandberg) [2019, Фэнтези, боевик, комедия, BDRip 2160p HEVC 10bit] Лицензия :: UZTOR.PW Трекер для всех
Регистрация ·
Имя: Пароль:  
· Забыли пароль?

Навигация по Торрент раздачам и Форум

 Шазам! / Shazam! (Дэвид Ф. Сандберг / David F. Sandberg) [2019, Фэнтези, боевик, комедия, BDRip 2160p HEVC 10bit] Лицензия

Главная  Кинофильмы  Кинофильмы (HEVC)  Новинки
Статистика раздачи
Нет
 
     
 
 
Автор Сообщение
  • NuRKHoNoFF ®
  • Не в сети
  • 5064
  • Пол: Мужской

  • Стаж: 8 месяцев 29 дней

  • Сообщений: 614

  • Откуда: Каттакурган

  • Провайдер: TPS TPS

  • Карма: 567


  • Наличие запрета:

  • Награды: 17 (Подробнее)
    Активный релизер 1 (Количество: 1) Активный релизер 2 (Количество: 1) Активный релизер 3 (Количество: 1) Активный релизер 4 (Количество: 1) Активный релизер 5 (Количество: 1)
  • Создавать темы 07-Июл-2019 19:04

    Шазам! / Shazam! -Год выпуска: 2019
    Страна: США
    Жанр: Фэнтези, боевик, комедия, приключения
    Продолжительность: 02:11:43
    Перевод: Дублированный [Лицензия]-Субтитры: Английские-Режиссер: Дэвид Ф. Сандберг / David F. Sandberg-В ролях: Закари Ливай, Мишель Борт, Джимон Хонсу, Марк Стронг, Джек Дилан Грейзер, Эшер Энджел, Марта Миланс, Миган Гуд, Грэйс Фултон, Адам Броди-Описание: В каждом из нас живет супергерой, нужна лишь толика магии, чтобы он проявил себя. Билли Бэтсон должен прокричать всего лишь одно слово - ШАЗАМ! - чтобы из сообразительного четырнадцатилетнего мальчишки превратиться во вполне себе взрослого супергероя Шазама, а все благодаря древнему волшебнику. В душе он остается ребенком, пусть и во взрослом могучем теле, поэтому поступает так, как поступил бы любой подросток, получивший сверхспособности, - оттягивается на полную катушку в этой подросшей версии себя самого! А умеет ли он летать? А есть ли у него рентгеновское зрение? Может ли он стрелять молниями из рук? А может ли пропустить контрольную по обществознанию? Шазам проверяет границы своих возможностей с бесшабашностью расшалившегося ребенка.
    Но ему придется быстро обрести контроль над своими способностями, чтобы сразиться со смертоносными силами зла доктора Таддеуса Сиваны.
    - -Качество: BDRip 2160p HEVC 10bit
    Формат: MKV
    Видео: HEVC HDR, 4324 Кбит/с, 3840x1600, 10 бит
    Аудио №1: AAC, 6 ch, 240 Кбит/с
    Аудио №2: AAC, 8 ch, 288 Кбит/с-

    MediaInfo

    General
    Unique ID : 273270899286010152048940209342093234624 (0xCD960F8FB37E9C53B423222415B891C0)
    Complete name : Shazam.2019.2160p.10bit.HDR.BluRay.8CH.x265.HEVC.mkv
    Format : Matroska
    Format version : Version 4
    File size : 4.47 GiB
    Duration : 2 h 11 min
    Overall bit rate : 4 855 kb/s
    Movie name : Shazam.2019.2160p.10bit.HDR.BluRay.8CH.x265.HEVC
    Encoded date : UTC 2019-07-07 08:03:07
    Writing application : mkvmerge v34.0.0 ('Sight and Seen') 64-bit
    Writing library : libebml v1.3.7 + libmatroska v1.5.0
    Video
    ID : 1
    Format : HEVC
    Format/Info : High Efficiency Video Coding
    Commercial name : HDR10
    Format profile : Main 10@L5@Main
    Codec ID : V_MPEGH/ISO/HEVC
    Duration : 2 h 11 min
    Bit rate : 4 324 kb/s
    Width : 3 840 pixels
    Height : 1 600 pixels
    Display aspect ratio : 2.40:1
    Frame rate mode : Constant
    Frame rate : 23.976 (24000/1001) FPS
    Color space : YUV
    Chroma subsampling : 4:2:0
    Bit depth : 10 bits
    Bits/(Pixel*Frame) : 0.029
    Stream size : 3.98 GiB (89%)
    Default : Yes
    Forced : No
    Color range : Limited
    Color primaries : BT.2020
    Transfer characteristics : PQ
    Matrix coefficients : BT.2020 non-constant
    Mastering display color primar : Display P3
    Mastering display luminance : min: 0.0050 cd/m2, max: 4000 cd/m2
    Maximum Content Light Level : 1351 cd/m2
    Maximum Frame-Average Light Le : 384 cd/m2
    Audio #1
    ID : 2
    Format : AAC LC SBR
    Format/Info : Advanced Audio Codec Low Complexity with Spectral Band Replication
    Commercial name : HE-AAC
    Format settings : Explicit
    Codec ID : A_AAC-2
    Duration : 2 h 11 min
    Bit rate : 239 kb/s
    Channel(s) : 6 channels
    Channel layout : C L R Ls Rs LFE
    Sampling rate : 48.0 kHz
    Frame rate : 23.438 FPS (2048 SPF)
    Compression mode : Lossy
    Delay relative to video : 31 ms
    Stream size : 225 MiB (5%)
    Language : Russian
    Default : Yes
    Forced : No
    Audio #2
    ID : 3
    Format : AAC LC SBR
    Format/Info : Advanced Audio Codec Low Complexity with Spectral Band Replication
    Commercial name : HE-AAC
    Format settings : Explicit
    Codec ID : A_AAC-2
    Duration : 2 h 11 min
    Bit rate : 288 kb/s
    Channel(s) : 8 channels
    Channel layout : C L R Ls Rs Lb Rb LFE
    Sampling rate : 48.0 kHz
    Frame rate : 23.438 FPS (2048 SPF)
    Compression mode : Lossy
    Delay relative to video : 31 ms
    Stream size : 272 MiB (6%)
    Language : English
    Default : No
    Forced : No
    Text #1
    ID : 4
    Format : UTF-8
    Codec ID : S_TEXT/UTF8
    Codec ID/Info : UTF-8 Plain Text
    Duration : 2 h 11 min
    Bit rate : 52 b/s
    Count of elements : 1757
    Stream size : 50.3 KiB (0%)
    Language : English
    Default : Yes
    Forced : No
    Text #2
    ID : 5
    Format : UTF-8
    Codec ID : S_TEXT/UTF8
    Codec ID/Info : UTF-8 Plain Text
    Duration : 2 h 11 min
    Bit rate : 64 b/s
    Count of elements : 2184
    Stream size : 61.9 KiB (0%)
    Title : SDH
    Language : English
    Default : No
    Forced : No


    _________________
    Показать сообщения:    
    Главная  Кинофильмы  Кинофильмы (HEVC)  Новинки

    Текущее время: 16-Сен 20:33

    Часовой пояс: UTC + 5



    Вы не можете начинать темы
    Вы не можете отвечать на сообщения
    Вы не можете редактировать свои сообщения
    Вы не можете удалять свои сообщения
    Вы не можете голосовать в опросах
    Вы не можете прикреплять файлы к сообщениям
    Вы не можете скачивать файлы