Идеальное свидание / The Perfect Date (Кристофер Нельсон / Christopher Nelson) [2019, Мелодрама, комедия, WEB-DLRip-AVC] :: UZTOR.PW Лучший трекер в зоне TAS-IX!
Регистрация ·
Имя: Пароль:  
· Забыли пароль?

Навигация по Торрент раздачам и Форум

 Идеальное свидание / The Perfect Date (Кристофер Нельсон / Christopher Nelson) [2019, Мелодрама, комедия, WEB-DLRip-AVC]

Главная  Кинофильмы  Зарубежные кинофильмы  Новинки
Статистика раздачи
Нет
 
     
 
 
Автор Сообщение
  • NuRKHoNoFF ®
  • Не в сети
  • 5064
  • Пол: Мужской

  • Стаж: 10 месяцев 4 дня

  • Сообщений: 737

  • Откуда: Каттакурган

  • Провайдер: TPS TPS

  • Карма: 574


  • Наличие запрета:

  • Награды: 17 (Подробнее)
    Активный релизер 1 (Количество: 1) Активный релизер 2 (Количество: 1) Активный релизер 3 (Количество: 1) Активный релизер 4 (Количество: 1) Активный релизер 5 (Количество: 1)
  • Создавать темы 06-Июл-2019 20:05

    Идеальное свидание / The Perfect Date -Год выпуска: 2019
    Страна: США
    Жанр: Мелодрама, комедия
    Продолжительность: 01:30:40
    Перевод: Дублированный [Netflix]-Режиссер: Кристофер Нельсон / Christopher Nelson-В ролях: Лора Марано, Ной Сентинео, Камила Мендес, Джо Крест, Сью-Линн Ансари, Мэтт Уолш, Кэрри Лазар, Ивэн Кастелло-Описание: Брукс работает в местном кафе, учится в колледже и мечтает изменить свою жизнь. Но к сожалению, он понятия не имеет как это сделать, да и в принципе не знает, чего хочет от этой жизни. Однажды он решает создать мобильное приложение, благодаря которому любая девушка сможет «арендовать» его в качестве бойфренда. По мере того, как он встречается с разными девушками, он начинает понимать чего же он на самом деле хочет от этой жизни.
    - -Качество: WEB-DLRip-AVC
    Формат: MKV
    Видео: MPEG-4 AVC, 1024x512 (2.00:1), 23.976 fps, 1904 Kbps, 0.171 bit/pixel
    Аудио №1: 48 kHz, AC3, 5.1, 384 Kbps | Пифагор | RUS |
    Аудио №2: 48 kHz, AC3, 2.0, 256 Kbps | HDRezka Studio | RUS |
    Аудио №3: 48 kHz, AC3, 5.1, 384 Kbps | Оригинал | ENG |-

    MediaInfo

    General
    Unique ID : 244997818165133731472550703846705915884 (0xB850DD09D6B69C5CB7670BE31798E7EC)
    Complete name : D:The.Perfect.Date.2019.2xRus.AVC.ExKinoRay.mkv
    Format : Matroska
    Format version : Version 2
    File size : 1.66 GiB
    Duration : 1 h 30 min
    Overall bit rate : 2 626 kb/s
    Movie name : The Perfect Date 2019 from ExKinoRay
    Encoded date : UTC 2019-04-30 02:45:13
    Writing application : mkvmerge v5.6.0 ('Kenya Kane') built on May 27 2012 16:44:04
    Writing library : libebml v1.2.3 + libmatroska v1.3.0
    Video
    ID : 1
    Format : AVC
    Format/Info : Advanced Video Codec
    Format profile : High@L4.1
    Format settings, CABAC : Yes
    Format settings, ReFrames : 11 frames
    Codec ID : V_MPEG4/ISO/AVC
    Duration : 1 h 30 min
    Bit rate : 1 603 kb/s
    Width : 1 024 pixels
    Height : 426 pixels
    Display aspect ratio : 2.40:1
    Frame rate mode : Constant
    Frame rate : 23.976 (23976/1000) FPS
    Color space : YUV
    Chroma subsampling : 4:2:0
    Bit depth : 8 bits
    Scan type : Progressive
    Bits/(Pixel*Frame) : 0.153
    Stream size : 1 005 MiB (59%)
    Title : Enigma
    Writing library : x264 core 152 r2851 ba24899
    Encoding settings : cabac=1 / ref=11 / deblock=1:-2:-2 / analyse=0x3:0x113 / me=umh / subme=10 / psy=1 / psy_rd=1.05:0.10 / mixed_ref=1 / me_range=32 / chroma_me=1 / trellis=2 / 8x8dct=1 / cqm=0 / deadzone=21,11 / fast_pskip=0 / chroma_qp_offset=-3 / threads=12 / lookahead_threads=3 / sliced_threads=0 / nr=0 / decimate=0 / interlaced=0 / bluray_compat=0 / constrained_intra=0 / bframes=10 / b_pyramid=2 / b_adapt=2 / b_bias=0 / direct=3 / weightb=1 / open_gop=0 / weightp=2 / keyint=240 / keyint_min=23 / scenecut=40 / intra_refresh=0 / rc=2pass / mbtree=0 / bitrate=1603 / ratetol=1.0 / qcomp=0.60 / qpmin=0 / qpmax=51 / qpstep=4 / cplxblur=20.0 / qblur=0.5 / ip_ratio=1.40 / pb_ratio=1.30 / aq=3:0.90
    Language : English
    Default : Yes
    Forced : No
    Color range : Limited
    Color primaries : BT.709
    Transfer characteristics : BT.709
    Matrix coefficients : BT.709
    Audio #1
    ID : 2
    Format : AC-3
    Format/Info : Audio Coding 3
    Mode extension : CM (complete main)
    Format settings, Endianness : Big
    Codec ID : A_AC3
    Duration : 1 h 30 min
    Bit rate mode : Constant
    Bit rate : 384 kb/s
    Channel(s) : 6 channels
    Channel positions : Front: L C R, Side: L R, LFE
    Sampling rate : 48.0 kHz
    Frame rate : 31.250 FPS (1536 spf)
    Compression mode : Lossy
    Stream size : 249 MiB (15%)
    Title : Dub
    Language : Russian
    Default : Yes
    Forced : No
    Audio #2
    ID : 3
    Format : AC-3
    Format/Info : Audio Coding 3
    Mode extension : CM (complete main)
    Format settings, Endianness : Big
    Codec ID : A_AC3
    Duration : 1 h 30 min
    Bit rate mode : Constant
    Bit rate : 256 kb/s
    Channel(s) : 2 channels
    Channel positions : Front: L R
    Sampling rate : 48.0 kHz
    Frame rate : 31.250 FPS (1536 spf)
    Compression mode : Lossy
    Stream size : 166 MiB (10%)
    Title : MVO (HDrezka Studio)
    Language : Russian
    Default : No
    Forced : No
    Audio #3
    ID : 4
    Format : AC-3
    Format/Info : Audio Coding 3
    Mode extension : CM (complete main)
    Format settings, Endianness : Big
    Codec ID : A_AC3
    Duration : 1 h 30 min
    Bit rate mode : Constant
    Bit rate : 384 kb/s
    Channel(s) : 6 channels
    Channel positions : Front: L C R, Side: L R, LFE
    Sampling rate : 48.0 kHz
    Frame rate : 31.250 FPS (1536 spf)
    Compression mode : Lossy
    Stream size : 249 MiB (15%)
    Language : English
    Default : No
    Forced : No
    Text #1
    ID : 5
    Format : UTF-8
    Codec ID : S_TEXT/UTF8
    Codec ID/Info : UTF-8 Plain Text
    Title : Forced
    Language : Russian
    Default : Yes
    Forced : No
    Text #2
    ID : 6
    Format : UTF-8
    Codec ID : S_TEXT/UTF8
    Codec ID/Info : UTF-8 Plain Text
    Title : Full
    Language : Russian
    Default : No
    Forced : No
    Text #3
    ID : 7
    Format : UTF-8
    Codec ID : S_TEXT/UTF8
    Codec ID/Info : UTF-8 Plain Text
    Title : Full
    Language : English
    Default : No
    Forced : No
    Text #4
    ID : 8
    Format : UTF-8
    Codec ID : S_TEXT/UTF8
    Codec ID/Info : UTF-8 Plain Text
    Title : SDH
    Language : English
    Default : No
    Forced : No

    _________________
    Показать сообщения:    
    Главная  Кинофильмы  Зарубежные кинофильмы  Новинки

    Текущее время: 22-Окт 17:46

    Часовой пояс: UTC + 5



    Вы не можете начинать темы
    Вы не можете отвечать на сообщения
    Вы не можете редактировать свои сообщения
    Вы не можете удалять свои сообщения
    Вы не можете голосовать в опросах
    Вы не можете прикреплять файлы к сообщениям
    Вы не можете скачивать файлы