Гнездо дракона / Dragon Nest: Warriors' Dawn (Юэфэн Сонг / Yuefeng Song ) [2014, Мультфильм, фэнтези, приключения, семейный, BDRip-AVC] Лицензия :: UZTOR.PW Трекер для всех
Регистрация ·
Имя: Пароль:  
· Забыли пароль?

Навигация по Торрент раздачам и Форум

 Гнездо дракона / Dragon Nest: Warriors' Dawn (Юэфэн Сонг / Yuefeng Song ) [2014, Мультфильм, фэнтези, приключения, семейный, BDRip-AVC] Лицензия

Главная  Мультфильмы  Зарубежные мультфильмы  HD-AVC
Статистика раздачи
Нет
 
     
 
 
Автор Сообщение
  • NuRKHoNoFF ®
  • Не в сети
  • 5064
  • Пол: Мужской

  • Стаж: 8 месяцев 1 день

  • Сообщений: 514

  • Откуда: Каттакурган

  • Провайдер: UzOnline UzOnline

  • Карма: 547


  • Создавать темы 06-Июл-2019 14:29

    Гнездо дракона / Dragon Nest: Warriors' Dawn -Год выпуска: 2014
    Страна: Китай
    Жанр: Мультфильм, фэнтези, приключения, семейный
    Продолжительность: 01:30:01
    Перевод: Профессиональный (полное дублирование) [Лицензия]-Режиссер: Юэфэн Сонг / Yuefeng Song-В ролях: Цзяо Сюй , Гуаньлин Джи , Йинг Хуан , Давей Шен , Сянлонг Менг , Йе Сунь , Тиан Джин , Хон Шан , Цзытун Ся , Блайт Оффарт , Бьянка Коллинз , Саймон Джэглом-Описание: Кто бы мог подумать, что всегда неуклюжий, но несомненно талантливый парень станет великим героем, который спасет свою красивейшую планету от пробудившегося зла? Много лет, пока легендарный Черный дракон спал, земля Алтера хранила хрупкий мир между расами людей, эльфов и неведомых нашему миру животных. Когда же он пробудился, охваченные ужасом жители были вынуждены бежать сквозь остров в попытке найти спасение...
    Наш герой Ламберт в компании своих пушистых компаньонов отправляется в путь полный веселых развлечений и приключений, встречая настоящих друзей и любовь в лице прекрасной эльфийской девочки. Объединившись, они находят тайную дорогу к пещере дракона, а юный воин выполняет возложенную на него важнейшую миссию: он входит в доверие к Черному Дракону, чтобы с честью и юмором выйти победителем.
    - -Качество: BDRip-AVC
    Формат: MKV
    Видео: х.264, 960x518 (1,85:1), 24,000 fps, 1875 kbps, 0.157 bit/pixel
    Аудио: 48 kHz, AC3 Dolby Digital, 3/2 (L,C,R,l,r) + LFE ch, 448.00 kbps-

    MediaInfo

    General
    Unique ID : 177112656381804453034275239493700394142 (0x853EA82707FAE9E68FD7878292939C9E)
    Complete name : Gnezdo.Drakona.2014.RUS.BDRip.x264.-HELLYWOOD.mkv
    Format : Matroska
    Format version : Version 4
    File size : 1.46 GiB
    Duration : 1 h 30 min
    Overall bit rate : 2 325 kb/s
    Movie name : Dragon Nest: Warriors' Dawn (2014) - HELLYWOOD
    Encoded date : UTC 2015-05-28 17:45:23
    Writing application : mkvmerge v5.9.0 ('On The Loose') built on Dec 15 2012 16:39:58
    Writing library : libebml v1.3.0 + libmatroska v1.4.0
    Video
    ID : 1
    Format : AVC
    Format/Info : Advanced Video Codec
    Format profile : High@L4.1
    Format settings : CABAC / 12 Ref Frames
    Format settings, CABAC : Yes
    Format settings, ReFrames : 12 frames
    Codec ID : V_MPEG4/ISO/AVC
    Duration : 1 h 30 min
    Bit rate : 1 875 kb/s
    Width : 960 pixels
    Height : 518 pixels
    Display aspect ratio : 1.85:1
    Frame rate mode : Constant
    Frame rate : 24.000 FPS
    Color space : YUV
    Chroma subsampling : 4:2:0
    Bit depth : 8 bits
    Scan type : Progressive
    Bits/(Pixel*Frame) : 0.157
    Stream size : 1.15 GiB (79%)
    Title : potroks
    Writing library : x264 core 146 r2538 121396c
    Encoding settings : cabac=1 / ref=12 / deblock=1:-1:-1 / analyse=0x3:0x113 / me=umh / subme=11 / psy=1 / psy_rd=1.04:0.05 / mixed_ref=1 / me_range=48 / chroma_me=1 / trellis=2 / 8x8dct=1 / cqm=0 / deadzone=21,11 / fast_pskip=0 / chroma_qp_offset=-3 / threads=9 / lookahead_threads=2 / sliced_threads=0 / nr=0 / decimate=1 / interlaced=0 / bluray_compat=0 / constrained_intra=0 / bframes=13 / b_pyramid=2 / b_adapt=2 / b_bias=0 / direct=3 / weightb=1 / open_gop=0 / weightp=2 / keyint=250 / keyint_min=23 / scenecut=40 / intra_refresh=0 / rc_lookahead=60 / rc=2pass / mbtree=0 / bitrate=1875 / ratetol=1.0 / qcomp=0.70 / qpmin=0 / qpmax=69 / qpstep=4 / cplxblur=20.0 / qblur=0.5 / vbv_maxrate=14000 / vbv_bufsize=14000 / nal_hrd=none / filler=0 / ip_ratio=1.35 / pb_ratio=1.25 / aq=1:0.80
    Language : English
    Default : Yes
    Forced : No
    Audio
    ID : 2
    Format : AC-3
    Format/Info : Audio Coding 3
    Commercial name : Dolby Digital
    Codec ID : A_AC3
    Duration : 1 h 30 min
    Bit rate mode : Constant
    Bit rate : 448 kb/s
    Channel(s) : 6 channels
    Channel layout : L R C LFE Ls Rs
    Sampling rate : 48.0 kHz
    Frame rate : 31.250 FPS (1536 SPF)
    Bit depth : 16 bits
    Compression mode : Lossy
    Stream size : 288 MiB (19%)
    Title : Dub | DD 5.1 @ 448 kbps - Blu-Ray RUS
    Language : Russian
    Service kind : Complete Main
    Default : Yes
    Forced : No
    Menu
    00:00:00.000 : en:(01)00:00:00:000
    00:00:04.000 : en:(02)00:00:04:000
    00:09:47.875 : en:(03)00:09:47:875
    00:22:21.458 : en:(04)00:22:21:458
    00:34:00.791 : en:(05)00:34:00:791
    00:45:00.666 : en:(06)00:45:00:666
    00:53:09.125 : en:(07)00:53:09:125
    01:03:32.208 : en:(08)01:03:32:208
    01:15:11.541 : en:(09)01:15:11:541

      -746

    • Сообщений: 102

    • Откуда: Космический Станция

    Создавать темы 06-Июл-2019 14:30 (спустя 1 минута)

    Топик был перенесен из форума Мультфильмы 2011-2018 годов в форум HD-AVC
    NuRKHoNoFF
    Показать сообщения:    
    Главная  Мультфильмы  Зарубежные мультфильмы  HD-AVC

    Текущее время: 19-Авг 12:00

    Часовой пояс: UTC + 5



    Вы не можете начинать темы
    Вы не можете отвечать на сообщения
    Вы не можете редактировать свои сообщения
    Вы не можете удалять свои сообщения
    Вы не можете голосовать в опросах
    Вы не можете прикреплять файлы к сообщениям
    Вы не можете скачивать файлы