Мы всегда жили в замке / We Have Always Lived in the Castle (Стэйси Пассон / Stacie Passon) [2018, Триллер, драма, детектив, WEB-DL 1080p] iTunes :: UZTOR.PW Лучший трекер в зоне TAS-IX!
Регистрация ·
Имя: Пароль:  
· Забыли пароль?

Навигация по Торрент раздачам и Форум

 Мы всегда жили в замке / We Have Always Lived in the Castle (Стэйси Пассон / Stacie Passon) [2018, Триллер, драма, детектив, WEB-DL 1080p] iTunes

Главная  Кинофильмы  Зарубежные кинофильмы  HD
Статистика раздачи
Нет
 
     
 
 
Автор Сообщение
  • NuRKHoNoFF ®
  • Не в сети
  • 5064
  • Пол: Мужской

  • Стаж: 10 месяцев 1 день

  • Сообщений: 730

  • Откуда: Каттакурган

  • Провайдер: TPS TPS

  • Карма: 574


  • Наличие запрета:

  • Награды: 17 (Подробнее)
    Активный релизер 1 (Количество: 1) Активный релизер 2 (Количество: 1) Активный релизер 3 (Количество: 1) Активный релизер 4 (Количество: 1) Активный релизер 5 (Количество: 1)
  • Создавать темы 06-Июл-2019 02:14

    Мы всегда жили в замке / We Have Always Lived in the Castle -Год выпуска: 2018
    Страна: США
    Жанр: Триллер, драма, детектив
    Продолжительность: 01:35:09
    Перевод: Дублированный [iTunes]-Режиссер: Стэйси Пассон / Stacie Passon-В ролях: Таисса Фармига, Александра Даддарио, Стефен Хоган, Себастиан Стэн, Криспин Гловер, Патрик Джозеф Бернс, Уна Кэрролл, Питер Кунан, Джоэнн Кроуфорд, Боско-Описание: История семьи отшельников Блэквудов — двух молодых сестёр и больного дяди, — которые стали мишенью злых пересудов после загадочной гибели остальных родственников. Сёстры укрываются в поместье — своем особенном закрытом мире, чьи границы самовольно нарушает красавец-кузен, приехавший с корыстными намерениями.- -Качество: WEB-DL 1080p
    Формат: MKV
    Видео: AVC, 4471 Kb/s, 1920x804
    Аудио: AC3, 6 ch, 384 Кбит/с-

    MediaInfo

    General
    Unique ID : 191136730685234961900125779473415227140 (0x8FCB98663ABBBCA597576B8D65234704)
    Complete name : We.Have.Always.Lived.in.the.Castle.2019.WEB-DL.1080p.mkv
    Format : Matroska
    Format version : Version 2
    File size : 3.29 GiB
    Duration : 1 h 35 min
    Overall bit rate : 4 953 kb/s
    Encoded date : UTC 2019-07-05 18:31:26
    Writing application : mkvmerge v7.8.0 ('River Man') 32bit built on Apr 3 2015 12:11:22
    Writing library : libebml v1.3.1 + libmatroska v1.4.2
    Video
    ID : 2
    Format : AVC
    Format/Info : Advanced Video Codec
    Format profile : High@L4
    Format settings : CABAC / 5 Ref Frames
    Format settings, CABAC : Yes
    Format settings, ReFrames : 5 frames
    Codec ID : V_MPEG4/ISO/AVC
    Duration : 1 h 35 min
    Bit rate : 4 471 kb/s
    Width : 1 920 pixels
    Height : 804 pixels
    Display aspect ratio : 2.40:1
    Frame rate mode : Constant
    Frame rate : 24.000 FPS
    Color space : YUV
    Chroma subsampling : 4:2:0
    Bit depth : 8 bits
    Scan type : Progressive
    Bits/(Pixel*Frame) : 0.121
    Stream size : 2.97 GiB (90%)
    Language : English
    Default : Yes
    Forced : No
    Color range : Limited
    Color primaries : BT.709
    Transfer characteristics : BT.709
    Matrix coefficients : BT.709
    Audio
    ID : 1
    Format : AC-3
    Format/Info : Audio Coding 3
    Commercial name : Dolby Digital
    Codec ID : A_AC3
    Duration : 1 h 35 min
    Bit rate mode : Constant
    Bit rate : 384 kb/s
    Channel(s) : 6 channels
    Channel layout : L R C LFE Ls Rs
    Sampling rate : 48.0 kHz
    Frame rate : 31.250 FPS (1536 SPF)
    Bit depth : 16 bits
    Compression mode : Lossy
    Stream size : 261 MiB (8%)
    Language : Russian
    Service kind : Complete Main
    Default : Yes
    Forced : No


    _________________
    Показать сообщения:    
    Главная  Кинофильмы  Зарубежные кинофильмы  HD

    Текущее время: 19-Окт 18:52

    Часовой пояс: UTC + 5



    Вы не можете начинать темы
    Вы не можете отвечать на сообщения
    Вы не можете редактировать свои сообщения
    Вы не можете удалять свои сообщения
    Вы не можете голосовать в опросах
    Вы не можете прикреплять файлы к сообщениям
    Вы не можете скачивать файлы