Порок / Kalank (Абхишек Варман / Abhishek Varman) [2019, Драма, мелодрама, BDRip 720p] :: UZTOR.PW Лучший трекер в зоне TAS-IX!
Регистрация ·
Имя: Пароль:  
· Забыли пароль?

Навигация по Торрент раздачам и Форум

 Порок / Kalank (Абхишек Варман / Abhishek Varman) [2019, Драма, мелодрама, BDRip 720p]

Главная  Кинофильмы  Индийские кинофильмы
Статистика раздачи
Скачал: [ 1 ]
 
     
 
 
Автор Сообщение
  • NuRKHoNoFF ®
  • Не в сети
  • 5064
  • Пол: Мужской

  • Стаж: 10 месяцев 4 дня

  • Сообщений: 737

  • Откуда: Каттакурган

  • Провайдер: TPS TPS

  • Карма: 574


  • Наличие запрета:

  • Награды: 17 (Подробнее)
    Активный релизер 1 (Количество: 1) Активный релизер 2 (Количество: 1) Активный релизер 3 (Количество: 1) Активный релизер 4 (Количество: 1) Активный релизер 5 (Количество: 1)
  • Создавать темы 05-Июл-2019 23:18

    Порок / Kalank -Год выпуска: 2019
    Страна: Индия
    Жанр: Драма, мелодрама
    Продолжительность: 02:45:46
    Перевод: Профессиональный (многоголосый) [Honey&Haseena]-Субтитры: Русские (на песни)-Режиссер: Абхишек Варман / Abhishek Varman-В ролях: Варун Дхаван, Алия Бхатт, Адитья Рой Капур, Мадхури Диксит, Сонакши Синха, Санджай Датт, Кунал Кхему, Паван Чопра, Киара Адвани, Крити Санон-Описание: Сюжет картины разворачивается в 40-е годы прошлого века, когда Индия проходила, пожалуй, через самый тяжёлый период в своей истории. В течение нескольких лет конфликта произошла целая серия страшных, кровопролитных сражений, в результате которых от страны отделилось несколько крупных территорий, впоследствии провозгласивших свою независимость. На фоне всех этих событий развивается невероятно красивая история любви. Героям картины предстоит преодолеть множество трудностей, способных раз и навсегда разрушить их хрупкое счастье.--Качество: BDRip 720p
    Формат: MKV
    Видео: MPEG-4 AVC, 3183 Кбит/с, 1280х544
    Аудио: АС3, 6 ch, 640 Кбит/с-

    MediaInfo

    General
    Unique ID : 226544292967270798199608532068318589487 (0xAA6ED8005D739E50BE7F6E65620C322F)
    Complete name : Porok.BDRip.2019.MPEG-AVC.720p.Honey&Haseena.mkv
    Format : Matroska
    Format version : Version 4
    File size : 4.43 GiB
    Duration : 2 h 45 min
    Overall bit rate : 3 825 kb/s
    Encoded date : UTC 2019-07-05 10:23:11
    Writing application : mkvmerge v8.3.0 ('Over the Horizon') 32bit
    Writing library : libebml v1.3.1 + libmatroska v1.4.2 / Lavf57.71.100
    Video
    ID : 1
    Format : AVC
    Format/Info : Advanced Video Codec
    Format profile : Main@L3.1
    Format settings : CABAC / 3 Ref Frames
    Format settings, CABAC : Yes
    Format settings, ReFrames : 3 frames
    Format settings, GOP : M=1, N=25
    Codec ID : V_MPEG4/ISO/AVC
    Duration : 2 h 45 min
    Bit rate : 3 183 kb/s
    Width : 1 280 pixels
    Height : 544 pixels
    Display aspect ratio : 2.35:1
    Frame rate mode : Constant
    Frame rate : 24.000 FPS
    Color space : YUV
    Chroma subsampling : 4:2:0
    Bit depth : 8 bits
    Scan type : Progressive
    Bits/(Pixel*Frame) : 0.190
    Stream size : 3.69 GiB (83%)
    Default : Yes
    Forced : No
    Audio
    ID : 2
    Format : AC-3
    Format/Info : Audio Coding 3
    Commercial name : Dolby Digital
    Codec ID : A_AC3
    Duration : 2 h 45 min
    Bit rate mode : Constant
    Bit rate : 640 kb/s
    Channel(s) : 6 channels
    Channel layout : L R C LFE Ls Rs
    Sampling rate : 48.0 kHz
    Frame rate : 31.250 FPS (1536 SPF)
    Bit depth : 16 bits
    Compression mode : Lossy
    Stream size : 759 MiB (17%)
    Service kind : Complete Main
    Default : Yes
    Forced : No


    _________________
    Показать сообщения:    
    Главная  Кинофильмы  Индийские кинофильмы

    Текущее время: 22-Окт 17:52

    Часовой пояс: UTC + 5



    Вы не можете начинать темы
    Вы не можете отвечать на сообщения
    Вы не можете редактировать свои сообщения
    Вы не можете удалять свои сообщения
    Вы не можете голосовать в опросах
    Вы не можете прикреплять файлы к сообщениям
    Вы не можете скачивать файлы