Шазам! / Shazam! (Дэвид Ф. Сандберг / David F. Sandberg) [2019, Фэнтези, боевик, комедия, BDRip 720p HEVC 10bit] Лицензия :: UZTOR.PW Лучший трекер в зоне TAS-IX!
Регистрация ·
Имя: Пароль:  
· Забыли пароль?

Навигация по Торрент раздачам и Форум

 Шазам! / Shazam! (Дэвид Ф. Сандберг / David F. Sandberg) [2019, Фэнтези, боевик, комедия, BDRip 720p HEVC 10bit] Лицензия

Главная  Кинофильмы  Кинофильмы (HEVC)  Новинки
Статистика раздачи
Нет
 
     
 
 
Автор Сообщение
  • NuRKHoNoFF ®
  • Не в сети
  • 5064
  • Пол: Мужской

  • Стаж: 10 месяцев 4 дня

  • Сообщений: 737

  • Откуда: Каттакурган

  • Провайдер: TPS TPS

  • Карма: 574


  • Наличие запрета:

  • Награды: 17 (Подробнее)
    Активный релизер 1 (Количество: 1) Активный релизер 2 (Количество: 1) Активный релизер 3 (Количество: 1) Активный релизер 4 (Количество: 1) Активный релизер 5 (Количество: 1)
  • Создавать темы 05-Июл-2019 19:16

    Шазам! / Shazam! -Год выпуска: 2019
    Страна: США
    Жанр: Фэнтези, боевик, комедия, приключения
    Продолжительность: 02:11:43
    Перевод: Дублированный [Лицензия]-Субтитры: Английские-Режиссер: Дэвид Ф. Сандберг / David F. Sandberg-В ролях: Закари Ливай, Мишель Борт, Джимон Хонсу, Марк Стронг, Джек Дилан Грейзер, Эшер Энджел, Марта Миланс, Миган Гуд, Грэйс Фултон, Адам Броди-Описание: В каждом из нас живет супергерой, нужна лишь толика магии, чтобы он проявил себя. Билли Бэтсон должен прокричать всего лишь одно слово - ШАЗАМ! - чтобы из сообразительного четырнадцатилетнего мальчишки превратиться во вполне себе взрослого супергероя Шазама, а все благодаря древнему волшебнику. В душе он остается ребенком, пусть и во взрослом могучем теле, поэтому поступает так, как поступил бы любой подросток, получивший сверхспособности, - оттягивается на полную катушку в этой подросшей версии себя самого! А умеет ли он летать? А есть ли у него рентгеновское зрение? Может ли он стрелять молниями из рук? А может ли пропустить контрольную по обществознанию? Шазам проверяет границы своих возможностей с бесшабашностью расшалившегося ребенка.
    Но ему придется быстро обрести контроль над своими способностями, чтобы сразиться со смертоносными силами зла доктора Таддеуса Сиваны.
    - -Качество: BDRip 720p HEVC 10bit
    Формат: MKV
    Видео: HEVC, 1404 Кбит/с, 1280x536, 10 бит
    Аудио №1: AAC, 6 ch, 240 Кбит/с
    Аудио №2: AAC, 6 ch, 240 Кбит/с-

    MediaInfo

    General
    Unique ID : 253802511531430789294725433521776692790 (0xBEF095EFE7A1CA5496702B4E93A10E36)
    Complete name : Shazam.2019.720p.10bit.BDRip.x265.HEVC.mkv
    Format : Matroska
    Format version : Version 2
    File size : 1.72 GiB
    Duration : 2 h 11 min
    Overall bit rate : 1 864 kb/s
    Encoded date : UTC 2019-06-27 04:00:54
    Writing application : mkvmerge v7.8.0 ('River Man') 32bit built on Apr 3 2015 12:11:22
    Writing library : libebml v1.3.1 + libmatroska v1.4.2
    Video
    ID : 1
    Format : HEVC
    Format/Info : High Efficiency Video Coding
    Format profile : Main 10@L3.1@Main
    Codec ID : V_MPEGH/ISO/HEVC
    Duration : 2 h 11 min
    Bit rate : 1 404 kb/s
    Width : 1 280 pixels
    Height : 536 pixels
    Display aspect ratio : 2.40:1
    Frame rate mode : Constant
    Frame rate : 23.976 (24000/1001) FPS
    Color space : YUV
    Chroma subsampling : 4:2:0
    Bit depth : 10 bits
    Bits/(Pixel*Frame) : 0.085
    Stream size : 1.29 GiB (75%)
    Default : Yes
    Forced : No
    Audio #1
    ID : 2
    Format : AAC LC SBR
    Format/Info : Advanced Audio Codec Low Complexity with Spectral Band Replication
    Commercial name : HE-AAC
    Format settings : Explicit
    Codec ID : A_AAC-2
    Duration : 2 h 11 min
    Bit rate : 219 kb/s
    Channel(s) : 6 channels
    Channel layout : C L R Ls Rs LFE
    Sampling rate : 48.0 kHz
    Frame rate : 23.438 FPS (2048 SPF)
    Compression mode : Lossy
    Delay relative to video : 31 ms
    Stream size : 206 MiB (12%)
    Language : English
    Default : No
    Forced : No
    Audio #2
    ID : 5
    Format : AAC LC SBR
    Format/Info : Advanced Audio Codec Low Complexity with Spectral Band Replication
    Commercial name : HE-AAC
    Format settings : Explicit
    Codec ID : A_AAC-2
    Duration : 2 h 11 min
    Channel(s) : 6 channels
    Channel layout : C L R Ls Rs LFE
    Sampling rate : 48.0 kHz
    Frame rate : 23.438 FPS (2048 SPF)
    Compression mode : Lossy
    Delay relative to video : 31 ms
    Language : Russian
    Default : Yes
    Forced : No
    Text #1
    ID : 3
    Format : UTF-8
    Codec ID : S_TEXT/UTF8
    Codec ID/Info : UTF-8 Plain Text
    Duration : 2 h 11 min
    Bit rate : 52 b/s
    Count of elements : 1757
    Stream size : 50.3 KiB (0%)
    Language : English
    Default : Yes
    Forced : No
    Text #2
    ID : 4
    Format : UTF-8
    Codec ID : S_TEXT/UTF8
    Codec ID/Info : UTF-8 Plain Text
    Duration : 2 h 11 min
    Bit rate : 64 b/s
    Count of elements : 2184
    Stream size : 61.9 KiB (0%)
    Title : SDH
    Language : English
    Default : No
    Forced : No
    Menu
    00:00:00.097 : en:00:00:00.097


    _________________


    Последний раз редактировалось: NuRKHoNoFF (2019-07-07 18:41), всего редактировалось 4 раз(а)
    • NuRKHoNoFF ®
    • Не в сети
    • 5064
    • Пол: Мужской

    • Стаж: 10 месяцев 4 дня

    • Сообщений: 737

    • Откуда: Каттакурган

    • Провайдер: TPS TPS

    • Карма: 574


    • Наличие запрета:

    • Награды: 17 (Подробнее)
      Активный релизер 1 (Количество: 1) Активный релизер 2 (Количество: 1) Активный релизер 3 (Количество: 1) Активный релизер 4 (Количество: 1) Активный релизер 5 (Количество: 1)
  • Создавать темы 05-Июл-2019 19:17 (спустя 28 секунд)

    Релиз сделан с помощью современного кодека x265(HEVC), который обеспечивает высокую степень сжатия и отличное качество! Всем приятного просмотра!

    _________________
    Показать сообщения:    
    Главная  Кинофильмы  Кинофильмы (HEVC)  Новинки

    Текущее время: 22-Окт 17:46

    Часовой пояс: UTC + 5



    Вы не можете начинать темы
    Вы не можете отвечать на сообщения
    Вы не можете редактировать свои сообщения
    Вы не можете удалять свои сообщения
    Вы не можете голосовать в опросах
    Вы не можете прикреплять файлы к сообщениям
    Вы не можете скачивать файлы