Фурия / Hai Phuong (Ле-Ван Киэт / Le Van Kiet) [2019, Боевик, криминал, WEB-DL 720p] :: UZTOR.PW Лучший трекер в зоне TAS-IX!
Регистрация ·
Имя: Пароль:  
· Забыли пароль?

Навигация по Торрент раздачам и Форум

 Фурия / Hai Phuong (Ле-Ван Киэт / Le Van Kiet) [2019, Боевик, криминал, WEB-DL 720p]

Главная  Кинофильмы  Азиатские кинофильмы
Статистика раздачи
Нет
 
     
 
 
Автор Сообщение
  • NuRKHoNoFF ®
  • Не в сети
  • 5064
  • Пол: Мужской

  • Стаж: 10 месяцев 4 дня

  • Сообщений: 737

  • Откуда: Каттакурган

  • Провайдер: TPS TPS

  • Карма: 574


  • Наличие запрета:

  • Награды: 17 (Подробнее)
    Активный релизер 1 (Количество: 1) Активный релизер 2 (Количество: 1) Активный релизер 3 (Количество: 1) Активный релизер 4 (Количество: 1) Активный релизер 5 (Количество: 1)
  • Создавать темы 05-Июл-2019 00:51

    Фурия / Hai Phuong -Год выпуска: 2019
    Страна: Вьетнам
    Жанр: Боевик, криминал
    Продолжительность: 01:37:19
    Перевод: Профессиональный (многоголосый) [СВ Студия]-Субтитры: Русские (forced), английские, испанские, французские, немецкие, итальянские, португальские | Нетфликс-Режиссер: Ле-Ван Киэт-В ролях: Вероника Нго, Дженнифер Аликс, Фам Анх Хоа, Тхань Ньен Фан, Брианна Робертс, Элизабет Суит, Ким Лонг Тач, Хоа Чан-Описание: 10 лет назад бывшая глава преступной группировки залегла на дно в сельской местности, родила девочку и наслаждается простым женским счастьем. Поскольку делать женщина ничего полезного не умеет, то занимается сбором долгов. Дочка Май из-за этого переживает и мечтает, что когда-нибудь они откроют рыбную ферму, и маме больше не нужно будет выполнять эту постыдную работу. Внезапно Май похищает международная организация торговцев людьми, и женщина превращается в смертоносную фурию - она пойдёт до конца, чтобы спасти дочь, а негодяям придется пожалеть о своем поступке.- -Качество: WEB-DL 720p
    Формат: MKV
    Видео: MPEG-4 AVC, 3650 Kбит/с, 1280x720, 24.000 кадр/с
    Аудио №1: АС3, 6ch, 640 Кбит/с, 48.0 KHz | Russian
    Аудио №2: АС3, 6ch, 640 Кбит/с, 48.0 KHz | Vetnam-

    MediaInfo

    General
    Unique ID: 235995845869487969368685659602011797006 (0xB18B25899DB4F6ECB7FDA88ED11FB60E)
    Complete name: Furie.2019.NF.WEB-DL.720p.mkv
    Format: Matroska
    Format version: Version 4
    File size: 3.35 GiB
    Duration: 1 h 37 min
    Overall bit rate mode: Variable
    Overall bit rate: 4 923 kb/s
    Encoded date: UTC 2019-07-04 13:11:42
    Writing application: mkvmerge v7.1.0 ('Good Love') 64bit built on Jul 27 2014 13:06:55
    Writing library: libebml v1.3.0 + libmatroska v1.4.1
    Video
    ID: 1
    Format: AVC
    Format/Info: Advanced Video Codec
    Format profile: Main@L3.1
    Format settings: CABAC / 3 Ref Frames
    Format settings, CABAC: Yes
    Format settings, Reference fra: 3 frames
    Codec ID: V_MPEG4/ISO/AVC
    Duration: 1 h 37 min
    Bit rate mode: Variable
    Bit rate: 3 650 kb/s
    Maximum bit rate: 5 475 kb/s
    Width: 1 280 pixels
    Height: 720 pixels
    Display aspect ratio: 16:9
    Frame rate mode: Constant
    Frame rate: 24.000 FPS
    Color space: YUV
    Chroma subsampling: 4:2:0
    Bit depth: 8 bits
    Scan type: Progressive
    Bits/(Pixel*Frame): 0.165
    Stream size: 2.47 GiB (74%)
    Writing library: x264 core 148 r2715 7e75228
    Encoding settings: cabac=1 / ref=3 / deblock=1:0:0 / analyse=0x1:0x111 / me=umh / subme=10 / psy=1 / psy_rd=1.00:0.00 / mixed_ref=1 / me_range=24 / chroma_me=1 / trellis=2 / 8x8dct=0 / cqm=0 / deadzone=21,11 / fast_pskip=1 / chroma_qp_offset=-2 / threads=8 / lookahead_threads=1 / sliced_threads=0 / nr=0 / decimate=1 / interlaced=0 / bluray_compat=0 / stitchable=1 / constrained_intra=0 / bframes=2 / b_pyramid=0 / b_adapt=2 / b_bias=0 / direct=3 / weightb=1 / open_gop=0 / weightp=2 / keyint=48 / keyint_min=25 / scenecut=0 / intra_refresh=0 / rc_lookahead=48 / rc=2pass / mbtree=1 / bitrate=3650 / ratetol=1.0 / qcomp=0.50 / qpmin=6 / qpmax=51 / qpstep=4 / cplxblur=20.0 / qblur=0.5 / vbv_maxrate=5475 / vbv_bufsize=7300 / nal_hrd=vbr / filler=0 / ip_ratio=1.40 / aq=1:1.00
    Default: Yes
    Forced: No
    Audio #1
    ID: 2
    Format: AC-3
    Format/Info: Audio Coding 3
    Commercial name: Dolby Digital
    Codec ID: A_AC3
    Duration: 1 h 37 min
    Bit rate mode: Constant
    Bit rate: 640 kb/s
    Channel(s): 6 channels
    Channel layout: L R C LFE Ls Rs
    Sampling rate: 48.0 kHz
    Frame rate: 31.250 FPS (1536 SPF)
    Bit depth: 16 bits
    Compression mode: Lossy
    Stream size: 445 MiB (13%)
    Title: СВ Студия
    Language: Russian
    Service kind: Complete Main
    Default: Yes
    Forced: No
    Audio #2
    ID: 3
    Format: E-AC-3
    Format/Info: Enhanced AC-3
    Commercial name: Dolby Digital Plus
    Codec ID: A_EAC3
    Duration: 1 h 37 min
    Bit rate mode: Constant
    Bit rate: 640 kb/s
    Channel(s): 6 channels
    Channel layout: L R C LFE Ls Rs
    Sampling rate: 48.0 kHz
    Frame rate: 31.250 FPS (1536 SPF)
    Compression mode: Lossy
    Stream size: 445 MiB (13%)
    Language: Vietnamese
    Service kind: Complete Main
    Default: No
    Forced: No
    Text #1
    ID: 4
    Format: UTF-8
    Codec ID: S_TEXT/UTF8
    Codec ID/Info: UTF-8 Plain Text
    Duration: 1 h 9 min
    Bit rate: 1 b/s
    Count of elements: 15
    Stream size: 600 Bytes (0%)
    Title: Forced
    Language: Russian
    Default: Yes
    Forced: No
    Text #2
    ID: 5
    Format: UTF-8
    Codec ID: S_TEXT/UTF8
    Codec ID/Info: UTF-8 Plain Text
    Duration: 1 h 32 min
    Bit rate: 36 b/s
    Count of elements: 850
    Stream size: 24.8 KiB (0%)
    Language: English
    Default: No
    Forced: No
    Text #3
    ID: 6
    Format: UTF-8
    Codec ID: S_TEXT/UTF8
    Codec ID/Info: UTF-8 Plain Text
    Duration: 1 h 32 min
    Bit rate: 38 b/s
    Count of elements: 922
    Stream size: 26.3 KiB (0%)
    Title: SDH
    Language: English
    Default: No
    Forced: No
    Text #4
    ID: 7
    Format: UTF-8
    Codec ID: S_TEXT/UTF8
    Codec ID/Info: UTF-8 Plain Text
    Duration: 1 h 32 min
    Bit rate: 34 b/s
    Count of elements: 845
    Stream size: 23.2 KiB (0%)
    Language: German
    Default: No
    Forced: No
    Text #5
    ID: 8
    Format: UTF-8
    Codec ID: S_TEXT/UTF8
    Codec ID/Info: UTF-8 Plain Text
    Duration: 1 h 32 min
    Bit rate: 31 b/s
    Count of elements: 842
    Stream size: 21.1 KiB (0%)
    Language: French
    Default: No
    Forced: No
    Text #6
    ID: 9
    Format: UTF-8
    Codec ID: S_TEXT/UTF8
    Codec ID/Info: UTF-8 Plain Text
    Duration: 1 h 32 min
    Bit rate: 32 b/s
    Count of elements: 851
    Stream size: 22.3 KiB (0%)
    Title: European
    Language: Spanish
    Default: No
    Forced: No
    Text #7
    ID: 10
    Format: UTF-8
    Codec ID: S_TEXT/UTF8
    Codec ID/Info: UTF-8 Plain Text
    Duration: 1 h 32 min
    Bit rate: 33 b/s
    Count of elements: 851
    Stream size: 22.5 KiB (0%)
    Language: Portuguese
    Default: No
    Forced: No
    Text #8
    ID: 11
    Format: UTF-8
    Codec ID: S_TEXT/UTF8
    Codec ID/Info: UTF-8 Plain Text
    Duration: 1 h 32 min
    Bit rate: 33 b/s
    Count of elements: 849
    Stream size: 22.9 KiB (0%)
    Language: Italian
    Default: No
    Forced: No


    _________________
    Показать сообщения:    
    Главная  Кинофильмы  Азиатские кинофильмы

    Текущее время: 22-Окт 17:47

    Часовой пояс: UTC + 5



    Вы не можете начинать темы
    Вы не можете отвечать на сообщения
    Вы не можете редактировать свои сообщения
    Вы не можете удалять свои сообщения
    Вы не можете голосовать в опросах
    Вы не можете прикреплять файлы к сообщениям
    Вы не можете скачивать файлы