Атака Титанов 3 / Вторжение титанов 3 / Shingeki no Kyojin TV-3 (Араки Тэцуро) [3-Сезон / 2-Часть] [Серии 1-9 из 10] [2019, Приключения, фантастика, экшен, драма, фэнтези, военное, детектив, сёнен, WEBRip 720p][Wakanim][Kansai][AniLibria][Original] :: UZTOR.PW Трекер для всех
Регистрация ·
Имя: Пароль:  
· Забыли пароль?

Навигация по Торрент раздачам и Форум

 Атака Титанов 3 / Вторжение титанов 3 / Shingeki no Kyojin TV-3 (Араки Тэцуро) [3-Сезон / 2-Часть] [Серии 1-9 из 10] [2019, Приключения, фантастика, экшен, драма, фэнтези, военное, детектив, сёнен, WEBRip 720p][Wakanim][Kansai][AniLibria][Original]

Главная  Аниме  Сериалы  Новинки (Онгоинги)
Статистика раздачи
Качаю: [ 1 ]
 
     
 
 
Автор Сообщение
  • -InVoKeR- ®
  • Не в сети
  • 5057
  • VIP пользователь

  • Пол: Мужской

  • Стаж: 9 месяцев 1 день

  • Сообщений: 284

  • Откуда: uztor.pw

  • Провайдер: UzOnline UzOnline

  • Тарифный план: Unlim 4 (99к, Мир: 4 Мбит/с, Tas-ix: 100Мбит/с)

  • Карма: 1118


  • Создавать темы 05-Июл-2019 00:18

    Атака Титанов 3 / Вторжение титанов 3 / Shingeki no Kyojin TV-3--
    Год выпуска: 2019
    Страна: Япония
    Студия: Wit Studio, Production I.G
    Жанр: экшен, драма, фэнтези, военное, детектив, сёнен
    Количество эпизодов: 1 - 9 из 10
    Продолжительность: 9х 24-25 мин.-Переводы:
    Дубляж | StudioBand [Wakanim]
    Любительский многоголосый [Kansai]
    Любительский многоголосый [AniLibria]-Режиссер: Тэцуро Араки-В ролях: Юки Кадзи, Юи Исикава, Марина Иноуэ, Хироси Камия, Ю Кобаяси, Пак Роми, Ю, Симамура, Кисё Танияма, Даисукэ Оно, Саки Фудзита-О фильме: Несколько сотен лет назад человечество было почти уничтожено титанами — огромными человекоподобными существами, которые не обладают интеллектом, но пожирают людей и, что хуже всего, делают это ради удовольствия, а не от чувства голода. Небольшой процент человечества выжил, возведя три высокие стены, окружившие мир людей, через которые не пройдут даже ужасные гиганты. Прошло два сезона, а титанам всё нет конца. В третьем же сезоне будет экранизирована арка «Восстание» оригинальной манги за авторством Хадзимэ Исаямы.
    Наши герои возвращаются после важной миссии по возвращению Эрена. Но приехав в город, они сталкиваются с новой угрозой — высшим правительством. После убийства пастора Ника ситуация внутри стен заметно накаляется. Зная, что действия монархии сильно угрожают человечеству, Эрвин Смит начинает подготовку к свержению старого правительства, а после — назначении Кристы новой королевой.
    -
    -Дополнительная Информация:
    Сценарий: Хадзимэ Исаяма, Ясуко Кобаяси, Кодзи Сэко
    Продюсер: Син Фурукава, Тэцуя Киносита, Тосихиро Маэда
    Оператор: Кадзухиро Ямада
    Композитор: Хироюки Савано, Ёсики Хаяси
    Художник: Сюнъитиро Ёсивара
    Монтаж: Ая Хида-Возраст: 16+ (зрителям, достигшим 16 лет)-Дата мировой премьеры: 7 апреля 2013
    Дата российской премьеры: 23 сентября 2014-Качество: WEBRip 720p
    Формат: MKV
    Видео: 1280x720, 2361 kbps, 23.976 fps
    Аудио#1: (Rus(int)): AC-3, 192 kbps, 48,0 KHz, 2 ch | [StudioBand]
    Аудио#2: (Rus(int)): AC-3, 192 kbps, 48,0 KHz, 2 ch | [Kansai]
    Аудио#3: (Rus(int)): AC-3, 192 kbps, 48,0 KHz, 2 ch | [AniLibria]
    Аудио#4: (Japanese): AC-3, 192 kbps, 48,0 KHz, 2 ch | [Original]
    Субтитры: русские (встроенные полный перевод, ASS) - SovetRomantica--

    MediaInfo

    General
    Unique ID : 313041700447466254928295299417380736378 (0xEB81A372FD9888CA5272616C429BCD7A)
    Complete name : D:\Атака Титанов [S03-Ch2][StudioBand-Kansai-AniLibtia-Original][WEBRip 720p]\Shingeki no Kyojin 50 [720p].mkv
    Format : Matroska
    Format version : Version 4
    File size : 607 MiB
    Duration : 24 min 2 s
    Overall bit rate : 3 530 kb/s
    Encoded date : UTC 2019-05-03 14:53:38
    Writing application : mkvmerge v33.0.0 ('A Little Bit of Madness') 64-bit
    Writing library : libebml v1.3.7 + libmatroska v1.5.0
    Attachments : OpenSans-Semibold.ttf
    Video
    ID : 1
    Format : AVC
    Format/Info : Advanced Video Codec
    Format profile : High@L4
    Format settings : CABAC / 6 Ref Frames
    Format settings, CABAC : Yes
    Format settings, Reference : 6 frames
    Codec ID : V_MPEG4/ISO/AVC
    Duration : 23 min 55 s
    Bit rate : 2 777 kb/s
    Width : 1 280 pixels
    Height : 720 pixels
    Display aspect ratio : 16:9
    Frame rate mode : Constant
    Frame rate : 23.976 (24000/1001) FPS
    Color space : YUV
    Chroma subsampling : 4:2:0
    Bit depth : 8 bits
    Scan type : Progressive
    Bits/(Pixel*Frame) : 0.126
    Stream size : 475 MiB (78%)
    Writing library : x264 core 142
    Encoding settings : cabac=1 / ref=6 / deblock=1:1:1 / analyse=0x3:0x113 / me=umh / subme=8 / psy=1 / psy_rd=0.40:0.00 / mixed_ref=1 / me_range=16 / chroma_me=1 / trellis=1 / 8x8dct=1 / cqm=0 / deadzone=21,11 / fast_pskip=1 / chroma_qp_offset=-2 / threads=10 / lookahead_threads=1 / sliced_threads=0 / nr=0 / decimate=1 / interlaced=0 / bluray_compat=0 / constrained_intra=0 / bframes=3 / b_pyramid=2 / b_adapt=2 / b_bias=0 / direct=3 / weightb=1 / open_gop=0 / weightp=2 / keyint=9999999 / keyint_min=5000000 / scenecut=0 / intra_refresh=0 / rc_lookahead=50 / rc=crf / mbtree=1 / crf=15.0 / qcomp=0.60 / qpmin=0 / qpmax=69 / qpstep=4 / vbv_maxrate=4000 / vbv_bufsize=6000 / crf_max=0.0 / nal_hrd=none / filler=0 / ip_ratio=1.40 / aq=1:0.60
    Language : Japanese
    Default : Yes
    Forced : No
    Audio #1
    ID : 2
    Format : AC-3
    Format/Info : Audio Coding 3
    Commercial name : Dolby Digital
    Codec ID : A_AC3
    Duration : 23 min 55 s
    Bit rate mode : Constant
    Bit rate : 192 kb/s
    Channel(s) : 2 channels
    Channel layout : L R
    Sampling rate : 48.0 kHz
    Frame rate : 31.250 FPS (1536 SPF)
    Bit depth : 16 bits
    Compression mode : Lossy
    Delay relative to video : -83 ms
    Stream size : 32.8 MiB (5%)
    Title : StudioBand
    Language : Russian
    Service kind : Complete Main
    Default : Yes
    Forced : No
    Audio #2
    ID : 3
    Format : AC-3
    Format/Info : Audio Coding 3
    Commercial name : Dolby Digital
    Codec ID : A_AC3
    Duration : 23 min 55 s
    Bit rate mode : Constant
    Bit rate : 192 kb/s
    Channel(s) : 2 channels
    Channel layout : L R
    Sampling rate : 48.0 kHz
    Frame rate : 31.250 FPS (1536 SPF)
    Bit depth : 16 bits
    Compression mode : Lossy
    Delay relative to video : -83 ms
    Stream size : 32.8 MiB (5%)
    Title : Kansai
    Language : Russian
    Service kind : Complete Main
    Default : No
    Forced : No
    Audio #3
    ID : 4
    Format : AC-3
    Format/Info : Audio Coding 3
    Commercial name : Dolby Digital
    Codec ID : A_AC3
    Duration : 23 min 55 s
    Bit rate mode : Constant
    Bit rate : 192 kb/s
    Channel(s) : 2 channels
    Channel layout : L R
    Sampling rate : 48.0 kHz
    Frame rate : 31.250 FPS (1536 SPF)
    Bit depth : 16 bits
    Compression mode : Lossy
    Delay relative to video : -83 ms
    Stream size : 32.8 MiB (5%)
    Title : AniLibria
    Language : Russian
    Service kind : Complete Main
    Default : No
    Forced : No
    Audio #4
    ID : 5
    Format : AC-3
    Format/Info : Audio Coding 3
    Commercial name : Dolby Digital
    Codec ID : A_AC3
    Duration : 23 min 55 s
    Bit rate mode : Constant
    Bit rate : 192 kb/s
    Channel(s) : 2 channels
    Channel layout : L R
    Sampling rate : 48.0 kHz
    Frame rate : 31.250 FPS (1536 SPF)
    Bit depth : 16 bits
    Compression mode : Lossy
    Delay relative to video : -83 ms
    Stream size : 32.8 MiB (5%)
    Title : Original
    Language : Japanese
    Service kind : Complete Main
    Default : No
    Forced : No
    Text #1
    ID : 6
    Format : ASS
    Codec ID : S_TEXT/ASS
    Codec ID/Info : Advanced Sub Station Alpha
    Duration : 20 min 52 s
    Bit rate : 9 b/s
    Count of elements : 10
    Compression mode : Lossless
    Stream size : 1.41 KiB (0%)
    Title : Надписи
    Language : Russian
    Default : Yes
    Forced : No
    Text #2
    ID : 7
    Format : ASS
    Codec ID : S_TEXT/ASS
    Codec ID/Info : Advanced Sub Station Alpha
    Duration : 23 min 58 s
    Bit rate : 128 b/s
    Count of elements : 287
    Compression mode : Lossless
    Stream size : 22.6 KiB (0%)
    Title : Полные субтитры
    Language : Russian
    Default : No
    Forced : No
    Показать сообщения:    
    Главная  Аниме  Сериалы  Новинки (Онгоинги)

    Текущее время: 18-Авг 21:28

    Часовой пояс: UTC + 5



    Вы не можете начинать темы
    Вы не можете отвечать на сообщения
    Вы не можете редактировать свои сообщения
    Вы не можете удалять свои сообщения
    Вы не можете голосовать в опросах
    Вы не можете прикреплять файлы к сообщениям
    Вы не можете скачивать файлы