Капитан Марвел / Captain Marvel (Анна Боден, Райан Флек / Anna Boden, Ryan Fleck) [2019, Фантастика, боевик, приключения, BDRip-AVC] Лицензия :: UZTOR.PW Трекер для всех
Регистрация ·
Имя: Пароль:  
· Забыли пароль?

Навигация по Торрент раздачам и Форум

 Капитан Марвел / Captain Marvel (Анна Боден, Райан Флек / Anna Boden, Ryan Fleck) [2019, Фантастика, боевик, приключения, BDRip-AVC] Лицензия

Главная  Кинофильмы  Зарубежные кинофильмы  HD-AVC
Статистика раздачи
Нет
 
     
 
 
Автор Сообщение
  • NuRKHoNoFF ®
  • Не в сети
  • 5064
  • Пол: Мужской

  • Стаж: 8 месяцев 1 день

  • Сообщений: 514

  • Откуда: Каттакурган

  • Провайдер: UzOnline UzOnline

  • Карма: 547


  • Создавать темы 04-Июл-2019 19:21

    Капитан Марвел / Captain Marvel -Год выпуска: 2019
    Страна: США
    Жанр: Фантастика, боевик, приключения
    Продолжительность: 02:03:42
    Перевод: Дублированный [Лицензия]-Субтитры: Русские (Forced), Русские (Full), Русские (SDH), английские (Full), английские (SDH), английские (SDH-Colored)-Режиссер: Анна Боден, Райан Флек-В ролях: Бри Ларсон, Сэмюэл Л. Джексон, Бен Мендельсон, Джуд Лоу, Аннетт Бенинг, Лашана Линч, Кларк Грегг, Рюн Темт, Джемма Чан, Альхенис Перес Сото, Джимон Хонсу, Ли Пейс, Чуку Моду, Мэттью Мехер, Акира Акбар, Марк Догерти, Стивен А. Чанг-Описание: После столкновения с враждующими инопланетными расами пилот военно-воздушных сил Кэрол Дэнверс обретает суперсилу и становится неуязвимой. Героине предстоит совладать со своими новыми способностями, чтобы противостоять могущественному врагу.- -Качество: BDRip-AVC
    Формат: MKV
    Видео: AVC, 1108x464 (2.40:1), 2467 kbps, 23,976 fps
    Аудио №1: AC3 / 5.1 / 48 kHz / 448 kbps / 16 bit | RUS
    Аудио №2: AC3 / 5.1 / 48 kHz / 448 kbps / 16 bit | ENG-

    MediaInfo

    General
    Unique ID : 173658576700230690554887070072415196976 (0x82A56CE03DFFC3159A49D23F3CD81730)
    Complete name : Captain.Marvel.2019.DUAL.BDRip.x264.-HELLYWOOD.mkv
    Format : Matroska
    Format version : Version 4
    File size : 2.91 GiB
    Duration : 2 h 3 min
    Overall bit rate : 3 365 kb/s
    Movie name : Captain Marvel (2019)
    Encoded date : UTC 2019-07-04 02:49:32
    Writing application : mkvmerge v5.9.0 ('On The Loose') built on Dec 15 2012 16:39:58
    Writing library : libebml v1.3.0 + libmatroska v1.4.0
    Video
    ID : 1
    Format : AVC
    Format/Info : Advanced Video Codec
    Format profile : High@L4.1
    Format settings : CABAC / 11 Ref Frames
    Format settings, CABAC : Yes
    Format settings, ReFrames : 11 frames
    Codec ID : V_MPEG4/ISO/AVC
    Duration : 2 h 3 min
    Bit rate : 2 467 kb/s
    Width : 1 108 pixels
    Height : 464 pixels
    Display aspect ratio : 2.40:1
    Frame rate mode : Constant
    Frame rate : 23.976 (24000/1001) FPS
    Color space : YUV
    Chroma subsampling : 4:2:0
    Bit depth : 8 bits
    Scan type : Progressive
    Bits/(Pixel*Frame) : 0.200
    Stream size : 2.08 GiB (71%)
    Title : potroks
    Writing library : x264 core 148 r2638 7599210
    Encoding settings : cabac=1 / ref=11 / deblock=1:-2:-2 / analyse=0x3:0x113 / me=umh / subme=11 / psy=1 / psy_rd=1.00:0.05 / mixed_ref=1 / me_range=32 / chroma_me=1 / trellis=2 / 8x8dct=1 / cqm=0 / deadzone=21,11 / fast_pskip=0 / chroma_qp_offset=-3 / threads=9 / lookahead_threads=2 / sliced_threads=0 / nr=0 / decimate=0 / interlaced=0 / bluray_compat=0 / constrained_intra=0 / bframes=11 / b_pyramid=2 / b_adapt=2 / b_bias=0 / direct=3 / weightb=1 / open_gop=0 / weightp=2 / keyint=240 / keyint_min=23 / scenecut=40 / intra_refresh=0 / rc_lookahead=60 / rc=2pass / mbtree=0 / bitrate=2467 / ratetol=1.0 / qcomp=0.70 / qpmin=0 / qpmax=69 / qpstep=4 / cplxblur=20.0 / qblur=0.5 / vbv_maxrate=14000 / vbv_bufsize=14000 / nal_hrd=none / filler=0 / ip_ratio=1.40 / pb_ratio=1.30 / aq=1:0.80
    Language : English
    Default : Yes
    Forced : No
    Audio #1
    ID : 2
    Format : AC-3
    Format/Info : Audio Coding 3
    Commercial name : Dolby Digital
    Codec ID : A_AC3
    Duration : 2 h 3 min
    Bit rate mode : Constant
    Bit rate : 448 kb/s
    Channel(s) : 6 channels
    Channel layout : L R C LFE Ls Rs
    Sampling rate : 48.0 kHz
    Frame rate : 31.250 FPS (1536 SPF)
    Bit depth : 16 bits
    Compression mode : Lossy
    Stream size : 396 MiB (13%)
    Title : Dub | DD 5.1 @ 448 kbps - Blu-ray EUR
    Language : Russian
    Service kind : Complete Main
    Default : Yes
    Forced : No
    Audio #2
    ID : 3
    Format : AC-3
    Format/Info : Audio Coding 3
    Commercial name : Dolby Digital
    Codec ID : A_AC3
    Duration : 2 h 3 min
    Bit rate mode : Constant
    Bit rate : 448 kb/s
    Channel(s) : 6 channels
    Channel layout : L R C LFE Ls Rs
    Sampling rate : 48.0 kHz
    Frame rate : 31.250 FPS (1536 SPF)
    Bit depth : 16 bits
    Compression mode : Lossy
    Stream size : 396 MiB (13%)
    Title : Original | DD 5.1 @ 448 kbps
    Language : English
    Service kind : Complete Main
    Default : No
    Forced : No
    Text #1
    ID : 4
    Format : UTF-8
    Codec ID : S_TEXT/UTF8
    Codec ID/Info : UTF-8 Plain Text
    Title : Forced
    Language : Russian
    Default : Yes
    Forced : No
    Text #2
    ID : 5
    Format : UTF-8
    Codec ID : S_TEXT/UTF8
    Codec ID/Info : UTF-8 Plain Text
    Title : Full
    Language : Russian
    Default : No
    Forced : No
    Text #3
    ID : 6
    Format : UTF-8
    Codec ID : S_TEXT/UTF8
    Codec ID/Info : UTF-8 Plain Text
    Title : SDH
    Language : Russian
    Default : No
    Forced : No
    Text #4
    ID : 7
    Format : UTF-8
    Codec ID : S_TEXT/UTF8
    Codec ID/Info : UTF-8 Plain Text
    Title : Full
    Language : English
    Default : No
    Forced : No
    Text #5
    ID : 8
    Format : UTF-8
    Codec ID : S_TEXT/UTF8
    Codec ID/Info : UTF-8 Plain Text
    Title : SDH
    Language : English
    Default : No
    Forced : No
    Text #6
    ID : 9
    Format : UTF-8
    Codec ID : S_TEXT/UTF8
    Codec ID/Info : UTF-8 Plain Text
    Title : SDH-Colored
    Language : English
    Default : No
    Forced : No
    Menu
    00:00:00.000 : en:Глава 01
    00:06:52.120 : en:Глава 02
    00:14:07.889 : en:Глава 03
    00:23:18.272 : en:Глава 04
    00:29:38.026 : en:Глава 05
    00:35:07.772 : en:Глава 06
    00:44:08.437 : en:Глава 07
    00:50:43.499 : en:Глава 08
    00:56:18.625 : en:Глава 09
    01:03:02.821 : en:Глава 10
    01:11:17.398 : en:Глава 11
    01:17:49.164 : en:Глава 12
    01:27:03.051 : en:Глава 13
    01:33:22.430 : en:Глава 14
    01:40:51.796 : en:Глава 15
    01:46:25.087 : en:Глава 16
    01:52:49.888 : en:Глава 17

    Показать сообщения:    
    Главная  Кинофильмы  Зарубежные кинофильмы  HD-AVC

    Текущее время: 19-Авг 11:59

    Часовой пояс: UTC + 5



    Вы не можете начинать темы
    Вы не можете отвечать на сообщения
    Вы не можете редактировать свои сообщения
    Вы не можете удалять свои сообщения
    Вы не можете голосовать в опросах
    Вы не можете прикреплять файлы к сообщениям
    Вы не можете скачивать файлы