Алита: Боевой ангел / Alita: Battle Angel (Роберт Родригес / Robert Rodriguez) [2019, Фантастика, боевик, триллер, мелодрама, приключения, WEB-DL 1080p] :: UZTOR.PW Трекер для всех
Регистрация ·
Имя: Пароль:  
· Забыли пароль?

Навигация по Торрент раздачам и Форум

 Алита: Боевой ангел / Alita: Battle Angel (Роберт Родригес / Robert Rodriguez) [2019, Фантастика, боевик, триллер, мелодрама, приключения, WEB-DL 1080p]

Главная  Кинофильмы  Зарубежные кинофильмы  HD
Статистика раздачи
Нет
 
     
 
 
Автор Сообщение
  • NuRKHoNoFF ®
  • Не в сети
  • 5064

  • Пол: Мужской

  • Стаж: 8 месяцев

  • Сообщений: 513

  • Откуда: Каттакурган

  • Провайдер: UzOnline UzOnline

  • Карма: 547


  • Создавать темы 04-Июл-2019 17:38

    Алита: Боевой ангел / Alita: Battle Angel -Год выпуска: 2019
    Страна: США
    Жанр: Фантастика, боевик, триллер, мелодрама, приключения
    Продолжительность: 02:01:47
    Перевод: Профессиональное (многоголосый) [СВ Студия]-Режиссер: Роберт Родригес / Robert Rodriguez-В ролях: Роза Салазар, Кристоф Вальц, Дженнифер Коннелли, Махершала Али, Эд Скрейн, Джеки Эрл Хейли, Киан Джонсон, Хорхе Лендеборг мл., Лана Кондор, Идара Виктор-Описание: Действие фильма происходит через 300 лет после Великой войны в XXVI веке. Доктор Идо находит останки женщины-киборга. После починки киборг ничего не помнит, но обнаруживает, что в состоянии пользоваться боевыми приемами киборгов. Начинаются поиски утерянных воспоминаний.- -Качество: WEB-DL 1080p
    Формат: MKV
    Видео: MPEG-4 AVC, 4195 Кбит/с, 1920x1080
    Аудио №1: AC3, 2 ch, 192 Кбит/с
    Аудио №2: MP3, 2 ch, 320 Кбит/с-

    MediaInfo

    General
    Unique ID : 188752110957392674910847031701883078738 (0x8E005591CBAD1EABAA61DFBECEF44852)
    Complete name : Alita.Battle.Angel.2019.1080p.WEB-DL.ELEKTRI4KA.UNIONGANG.mkv
    Format : Matroska
    Format version : Version 4
    File size : 4.01 GiB
    Duration : 2 h 1 min
    Overall bit rate : 4 709 kb/s
    Movie name : EVO
    Encoded date : UTC 2019-06-29 17:12:02 / UTC 2019-06-27T00:27:22Z
    Writing application : mkvmerge v8.3.0 ('Over the Horizon') 64bit
    Writing library : libebml v1.3.1 + libmatroska v1.4.2 / Lavf55.12.0
    Video
    ID : 1
    Format : AVC
    Format/Info : Advanced Video Codec
    Format profile : High@L4.1
    Format settings : CABAC / 4 Ref Frames
    Format settings, CABAC : Yes
    Format settings, ReFrames : 4 frames
    Codec ID : V_MPEG4/ISO/AVC
    Duration : 2 h 1 min
    Bit rate : 4 195 kb/s
    Width : 1 920 pixels
    Height : 1 080 pixels
    Display aspect ratio : 16:9
    Frame rate mode : Constant
    Frame rate : 23.976 (24000/1001) FPS
    Color space : YUV
    Chroma subsampling : 4:2:0
    Bit depth : 8 bits
    Scan type : Progressive
    Bits/(Pixel*Frame) : 0.084
    Stream size : 3.49 GiB (87%)
    Writing library : x264 core 142 r2479 dd79a61
    Encoding settings : cabac=1 / ref=4 / deblock=1:0:0 / analyse=0x3:0x133 / me=umh / subme=10 / psy=1 / psy_rd=1.00:0.00 / mixed_ref=1 / me_range=24 / chroma_me=1 / trellis=2 / 8x8dct=1 / cqm=0 / deadzone=21,11 / fast_pskip=1 / chroma_qp_offset=-2 / threads=12 / lookahead_threads=2 / sliced_threads=0 / nr=0 / decimate=1 / interlaced=0 / bluray_compat=0 / constrained_intra=0 / bframes=8 / b_pyramid=2 / b_adapt=2 / b_bias=0 / direct=3 / weightb=1 / open_gop=0 / weightp=2 / keyint=240 / keyint_min=24 / scenecut=40 / intra_refresh=0 / rc_lookahead=60 / rc=2pass / mbtree=1 / bitrate=4195 / ratetol=1.0 / qcomp=0.60 / qpmin=0 / qpmax=69 / qpstep=4 / cplxblur=20.0 / qblur=0.5 / vbv_maxrate=62500 / vbv_bufsize=78125 / nal_hrd=none / filler=0 / ip_ratio=1.40 / aq=1:1.00
    Default : Yes
    Forced : No
    Color range : Limited
    Color primaries : BT.709
    Transfer characteristics : BT.709
    Matrix coefficients : BT.709
    Statistics Tags Issue : mkvmerge v8.3.0 ('Over the Horizon') 64bit 2019-06-29 17:12:02 / mkvmerge v8.3.0 ('Over the Horizon') 64bit 2019-06-29 17:12:02 / UTC 2019-06-27T00:27:22Z
    FromStats_BitRate : 4195144
    FromStats_Duration : 02:01:47.300000000
    FromStats_FrameCount : 175200
    FromStats_StreamSize : 3831897327
    Audio #1
    ID : 2
    Format : AC-3
    Format/Info : Audio Coding 3
    Commercial name : Dolby Digital
    Codec ID : A_AC3
    Duration : 2 h 1 min
    Bit rate mode : Constant
    Bit rate : 192 kb/s
    Channel(s) : 2 channels
    Channel layout : L R
    Sampling rate : 48.0 kHz
    Frame rate : 31.250 FPS (1536 SPF)
    Bit depth : 16 bits
    Compression mode : Lossy
    Delay relative to video : -52 ms
    Stream size : 167 MiB (4%)
    Language : Russian
    Service kind : Complete Main
    Default : Yes
    Forced : No
    Statistics Tags Issue : mkvmerge v8.3.0 ('Over the Horizon') 64bit 2019-06-29 17:12:02 / mkvmerge v8.3.0 ('Over the Horizon') 64bit 2019-06-29 17:12:02 / UTC 2019-06-27T00:27:22Z
    FromStats_BitRate : 192000
    FromStats_Duration : 02:01:47.328000000
    FromStats_FrameCount : 228354
    FromStats_StreamSize : 175375872
    Audio #2
    ID : 3
    Format : MPEG Audio
    Format version : Version 1
    Format profile : Layer 3
    Codec ID : A_MPEG/L3
    Codec ID/Hint : MP3
    Duration : 2 h 1 min
    Bit rate mode : Constant
    Bit rate : 320 kb/s
    Channel(s) : 2 channels
    Sampling rate : 44.1 kHz
    Compression mode : Lossy
    Delay relative to video : -83 ms
    Stream size : 279 MiB (7%)
    Language : English
    Default : No
    Forced : No
    Statistics Tags Issue : mkvmerge v8.3.0 ('Over the Horizon') 64bit 2019-06-29 17:12:02 / mkvmerge v8.3.0 ('Over the Horizon') 64bit 2019-06-29 17:12:02 / UTC 2019-06-27T00:27:22Z
    FromStats_BitRate : 320000
    FromStats_Duration : 02:01:47.415000000
    FromStats_FrameCount : 279737
    FromStats_StreamSize : 292296620

    Показать сообщения:    
    Главная  Кинофильмы  Зарубежные кинофильмы  HD

    Текущее время: 18-Авг 21:21

    Часовой пояс: UTC + 5



    Вы не можете начинать темы
    Вы не можете отвечать на сообщения
    Вы не можете редактировать свои сообщения
    Вы не можете удалять свои сообщения
    Вы не можете голосовать в опросах
    Вы не можете прикреплять файлы к сообщениям
    Вы не можете скачивать файлы