Город лжи / City of Lies (Брэд Фурман / Brad Furman) [2018, Триллер, драма, криминал, BDRip 1080p] :: UZTOR.PW Трекер для всех
Регистрация ·
Имя: Пароль:  
· Забыли пароль?

Навигация по Торрент раздачам и Форум

 Город лжи / City of Lies (Брэд Фурман / Brad Furman) [2018, Триллер, драма, криминал, BDRip 1080p]

Главная  Кинофильмы  Зарубежные кинофильмы  HD
Статистика раздачи
Нет
 
     
 
 
Автор Сообщение
  • -InVoKeR- ®
  • Не в сети
  • 5057
  • VIP пользователь

  • Пол: Мужской

  • Стаж: 9 месяцев 1 день

  • Сообщений: 284

  • Откуда: uztor.pw

  • Провайдер: UzOnline UzOnline

  • Тарифный план: Unlim 4 (99к, Мир: 4 Мбит/с, Tas-ix: 100Мбит/с)

  • Карма: 1118


  • Создавать темы 29-Июн-2019 09:53

    Город лжи / City of Lies-- Год выпуска: 2018
    Страна: Великобритания, США
    Студия: FilmNation Entertainment, Good Films Collective, Infinitum Nihil
    Жанр: Триллер, драма, криминал, детектив, биография
    Продолжительность: 01:52:17
    Перевод: Профессиональный многоголосый | СВ Студия-Режиссер: Брэд Фурман / Brad Furman-В ролях: Джонни Депп, Форест Уитакер, Тоби Хасс, Дэйтон Калли, Нил Браун мл., Луис Хертэм, Шей Уигэм, Ксандер Беркли, Мелани Бенц, Шамир Андерсон-Описание: 7 сентября 1996 года был смертельно ранен рэпер Тупак Шакур, через полгода был застрелен главный подозреваемый в его убийстве - хип-хоп-звезда Бигги Смолз. Преступники не были найдены, дело о «рэперской войне побережий» было закрыто. Спустя годы опальный детектив Рассел Пул возвращается к расследованию и вместе с репортером Джексоном распутывает паутину немыслимого заговора, в котором, очевидно, замешана полиция Лас-Вегаса.- -Качество: BDRip 1080p
    Формат: MKV
    Видео: MPEG-4 AVC, 11.5 Mбит/с, 1920x804, 23.976 кадр/с
    Аудио #1: Русский (АС3, 6ch, 448 Кбит/с, 48.0 KHz) Профессиональный (многоголосый, закадровый) СВ Студия
    Аудио #2: Английский (DTS, 6ch, 1509 Кбит/с, 48.0 KHz)
    Субтитры: нет
    Главы: Есть--

    Тех. инфо

    Источник: City.of.Lies.2018.1080p.BluRay.x264.DTS-FGT
    General
    Unique ID : 250230258196626600925077264321354642658 (0xBC40983FEA33DDAFA97220C9197BB4E2)
    Complete name : City.of.Lies.2018.BDRip.1080p.mkv
    Format : Matroska
    Format version : Version 4
    File size : 10.6 GiB
    Duration : 1 h 52 min
    Overall bit rate : 13.5 Mb/s
    Encoded date : UTC 2019-06-28 16:26:59
    Writing application : mkvmerge v7.1.0 ('Good Love') 64bit built on Jul 27 2014 13:06:55
    Writing library : libebml v1.3.0 + libmatroska v1.4.1
    Video
    ID : 1
    Format : AVC
    Format/Info : Advanced Video Codec
    Format profile : High@L4.1
    Format settings : CABAC / 4 Ref Frames
    Format settings, CABAC : Yes
    Format settings, Reference fra : 4 frames
    Codec ID : V_MPEG4/ISO/AVC
    Duration : 1 h 52 min
    Bit rate : 11.5 Mb/s
    Width : 1 920 pixels
    Height : 804 pixels
    Display aspect ratio : 2.40:1
    Frame rate mode : Constant
    Frame rate : 24.000 FPS
    Color space : YUV
    Chroma subsampling : 4:2:0
    Bit depth : 8 bits
    Scan type : Progressive
    Bits/(Pixel*Frame) : 0.310
    Stream size : 9.02 GiB (85%)
    Writing library : x264 core 148 r2795M aaa9aa8
    Encoding settings : cabac=1 / ref=4 / deblock=1:-2:-2 / analyse=0x3:0x113 / me=umh / subme=9 / psy=1 / psy_rd=1.00:0.15 / mixed_ref=1 / me_range=16 / chroma_me=1 / trellis=2 / 8x8dct=1 / cqm=0 / deadzone=21,11 / fast_pskip=1 / chroma_qp_offset=-3 / threads=24 / lookahead_threads=3 / sliced_threads=0 / nr=0 / decimate=1 / interlaced=0 / bluray_compat=0 / constrained_intra=0 / bframes=3 / b_pyramid=2 / b_adapt=1 / b_bias=0 / direct=3 / weightb=1 / open_gop=0 / weightp=2 / keyint=250 / keyint_min=25 / scenecut=40 / intra_refresh=0 / rc_lookahead=50 / rc=2pass / mbtree=1 / bitrate=11500 / ratetol=1.0 / qcomp=0.60 / qpmin=0 / qpmax=69 / qpstep=4 / cplxblur=20.0 / qblur=0.5 / vbv_maxrate=31250 / vbv_bufsize=31250 / nal_hrd=none / filler=0 / ip_ratio=1.40 / aq=1:1.00
    Language : English
    Default : Yes
    Forced : No
    Audio #1
    ID : 2
    Format : AC-3
    Format/Info : Audio Coding 3
    Commercial name : Dolby Digital
    Codec ID : A_AC3
    Duration : 1 h 52 min
    Bit rate mode : Constant
    Bit rate : 448 kb/s
    Channel(s) : 6 channels
    Channel layout : L R C LFE Ls Rs
    Sampling rate : 48.0 kHz
    Frame rate : 31.250 FPS (1536 SPF)
    Bit depth : 16 bits
    Compression mode : Lossy
    Stream size : 360 MiB (3%)
    Language : Russian
    Service kind : Complete Main
    Default : Yes
    Forced : No
    Audio #2
    ID : 3
    Format : DTS
    Format/Info : Digital Theater Systems
    Codec ID : A_DTS
    Duration : 1 h 52 min
    Bit rate mode : Constant
    Bit rate : 1 509 kb/s
    Channel(s) : 6 channels
    Channel layout : C L R Ls Rs LFE
    Sampling rate : 48.0 kHz
    Frame rate : 93.750 FPS (512 SPF)
    Bit depth : 24 bits
    Compression mode : Lossy
    Stream size : 1.18 GiB (11%)
    Language : English
    Default : No
    Forced : No
    Menu
    00:00:00.000 : en:Chapter 01
    00:05:23.083 : en:Chapter 02
    00:10:00.208 : en:Chapter 03
    00:16:00.625 : en:Chapter 04
    00:22:14.208 : en:Chapter 05
    00:27:25.542 : en:Chapter 06
    00:33:04.875 : en:Chapter 07
    00:38:14.750 : en:Chapter 08
    00:43:31.083 : en:Chapter 09
    00:49:31.458 : en:Chapter 10
    00:55:02.833 : en:Chapter 11
    01:00:54.167 : en:Chapter 12
    01:07:40.792 : en:Chapter 13
    01:12:40.792 : en:Chapter 14
    01:17:49.292 : en:Chapter 15
    01:21:38.500 : en:Chapter 16
    01:27:32.875 : en:Chapter 17
    01:32:16.250 : en:Chapter 18
    01:38:06.667 : en:Chapter 19
    01:43:18.833 : en:Chapter 20
    Показать сообщения:    
    Главная  Кинофильмы  Зарубежные кинофильмы  HD

    Текущее время: 18-Авг 21:29

    Часовой пояс: UTC + 5



    Вы не можете начинать темы
    Вы не можете отвечать на сообщения
    Вы не можете редактировать свои сообщения
    Вы не можете удалять свои сообщения
    Вы не можете голосовать в опросах
    Вы не можете прикреплять файлы к сообщениям
    Вы не можете скачивать файлы