Дамбо / Dumbo (Тим Бёртон / Tim Burton) [2019, Фэнтези, семейный, BDRip-HEVC 1080p ] iTunes :: UZTOR.PW Трекер для всех
Регистрация ·
Имя: Пароль:  
· Забыли пароль?

Навигация по Торрент раздачам и Форум

 Дамбо / Dumbo (Тим Бёртон / Tim Burton) [2019, Фэнтези, семейный, BDRip-HEVC 1080p ] iTunes

Главная  Кинофильмы  Кинофильмы (HEVC)  Новинки
Статистика раздачи
Нет
 
     
 
 
Автор Сообщение
  • -InVoKeR- ®
  • Не в сети
  • 5057
  • VIP пользователь

  • Пол: Мужской

  • Стаж: 9 месяцев 1 день

  • Сообщений: 284

  • Откуда: uztor.pw

  • Провайдер: UzOnline UzOnline

  • Тарифный план: Unlim 4 (99к, Мир: 4 Мбит/с, Tas-ix: 100Мбит/с)

  • Карма: 1118


  • Создавать темы 29-Июн-2019 09:10

    Дамбо / Dumbo-- Год выпуска: 2019
    Страна: США
    Жанр: Фэнтези, семейный
    Продолжительность: 01:51:56
    Перевод: Дублированный iTunes-Режиссер: Тим Бёртон / Tim Burton-В ролях: Колин Фаррелл, Майкл Китон, Дэнни ДеВито, Ева Грин, Алан Аркин, Нико Паркер, Финли Хоббинс, Рошан Сет, Ларс Айдингер, Деобиа Опарей-Описание: Цирковой импресарио Макс Медичи назначает бывшую звезду цирка Холта Фэрриера и его детей Милли и Джо опекунами новорожденного слонёнка, чьи невероятно большие уши сразу становятся предметом для постоянных шуток и насмешек коллег Холта по цеху. Внезапно узнав, что Дамбо умеет летать, владелец цирка решает нажиться на необычных способностях слонёнка. К делу подключается энергичный предприниматель В. А. Вэндевер, который решает сделать из малыша Дамбо главную звезду своего нового грандиозного развлекательного предприятия «Сказочная страна».--Качество: BDRip-HEVC 1080p
    Формат: mkv
    Видео: HEVC, 1920x1040, 2390 kbps
    Аудио: AC-3, 384 kbps, 6 ch | [iTunes]
    Аудио: ACC, 299 kbps, 8 ch | [Original]
    Субтитры: русские (встроенные полный перевод, SRT)-

    Тех. инфо

    Общее
    Уникальный идентификатор : 1781136258037366739417455681353581799 (0x15708CC2C63C1AF58228FF98FF884E7)
    Формат : Matroska
    Версия формата : Version 4
    Размер файла : 2,40 Гбайт
    Продолжительность : 1 ч. 51 м.
    Общий поток : 3075 Кбит/сек
    Название фильма : Dumbo [x265]
    Дата кодирования : UTC 2019-06-28 00:43:27
    Программа кодирования : mkvmerge v34.0.0 ('Sight and Seen') 64-bit
    Библиотека кодирования : libebml v1.3.7 + libmatroska v1.5.0
    Видео
    Идентификатор : 1
    Формат : HEVC
    Формат/Информация : High Efficiency Video Coding
    Профиль формата : Main 10@L4@Main
    Идентификатор кодека : V_MPEGH/ISO/HEVC
    Продолжительность : 1 ч. 51 м.
    Битрейт : 2390 Кбит/сек
    Ширина : 1920 пикселей
    Высота : 1040 пикселей
    Соотношение сторон : 1,85:1
    Режим частоты кадров : Постоянный
    Частота кадров : 23,976 (24000/1001) кадра/сек
    Цветовое пространство : YUV
    Субдискретизация насыщенности : 4:2:0
    Битовая глубина : 10 бит
    Бит/(Пиксели*Кадры) : 0.050
    Размер потока : 1,87 Гбайт (78%)
    Аудио #1
    Идентификатор : 2
    Формат : AC-3
    Формат/Информация : Audio Coding 3
    Коммерческое название : Dolby Digital
    Идентификатор кодека : A_AC3
    Продолжительность : 1 ч. 51 м.
    Вид битрейта : Постоянный
    Битрейт : 384 Кбит/сек
    Каналы : 6 каналов
    ChannelLayout : L R C LFE Ls Rs
    Частота : 48,0 КГц
    Частота кадров : 31,250 кадров/сек (1536 SPF)
    Битовая глубина : 16 бит
    Метод сжатия : С потерями
    Размер потока : 307 Мбайт (12%)
    Заголовок : iTunes
    Язык : Russian
    Аудио #2
    Идентификатор : 3
    Формат : AAC LC SBR
    Формат/Информация : Advanced Audio Codec Low Complexity with Spectral Band Replication
    Коммерческое название : HE-AAC
    Настройки формата : Explicit
    Идентификатор кодека : A_AAC-2
    Продолжительность : 1 ч. 51 м.
    Битрейт : 299 Кбит/сек
    Каналы : 8 каналов
    ChannelLayout : C L R Ls Rs Lb Rb LFE
    Частота : 48,0 КГц
    Частота кадров : 23,438 кадра/сек (2048 SPF)
    Метод сжатия : С потерями
    Задержка видео : 31 мс.
    Размер потока : 239 Мбайт (10%)
    Заголовок : Original
    Язык : English
    Текст #1
    Идентификатор : 4
    Формат : UTF-8
    Идентификатор кодека : S_TEXT/UTF8
    Идентификатор кодека/Информация : UTF-8 Plain Text
    Продолжительность : 1 ч. 41 м.
    Битрейт : 1 бит/сек
    ElementCount : 17
    Размер потока : 838 байт (0%)
    Заголовок : Надписи
    Язык : Russian
    Текст #2
    Идентификатор : 5
    Формат : UTF-8
    Идентификатор кодека : S_TEXT/UTF8
    Идентификатор кодека/Информация : UTF-8 Plain Text
    Продолжительность : 1 ч. 51 м.
    Битрейт : 57 бит/сек
    ElementCount : 1172
    Размер потока : 47,2 Кбайт (0%)
    Заголовок : Полные субтитры
    Язык : Russian
    Меню
    00:00:00.000 : en:Глава 01
    00:02:49.461 : en:Глава 02
    00:06:46.072 : en:Глава 03
    00:11:23.766 : en:Глава 04
    00:16:33.993 : en:Глава 05
    00:19:20.493 : en:Глава 06
    00:26:08.233 : en:Глава 07
    00:27:46.331 : en:Глава 08
    00:31:07.783 : en:Глава 09
    00:35:09.024 : en:Глава 10
    00:40:44.984 : en:Глава 11
    00:46:44.927 : en:Глава 12
    00:50:23.938 : en:Глава 13
    00:57:15.265 : en:Глава 14
    01:01:53.126 : en:Глава 15
    01:07:18.785 : en:Глава 16
    01:10:11.666 : en:Глава 17
    01:14:47.858 : en:Глава 18
    01:18:05.055 : en:Глава 19
    01:27:55.896 : en:Глава 20
    01:37:09.532 : en:Глава 21
    01:39:41.100 : en:Глава 22
    01:44:02.611 : en:Глава 23
    --
    Показать сообщения:    
    Главная  Кинофильмы  Кинофильмы (HEVC)  Новинки

    Текущее время: 18-Авг 21:23

    Часовой пояс: UTC + 5



    Вы не можете начинать темы
    Вы не можете отвечать на сообщения
    Вы не можете редактировать свои сообщения
    Вы не можете удалять свои сообщения
    Вы не можете голосовать в опросах
    Вы не можете прикреплять файлы к сообщениям
    Вы не можете скачивать файлы