Повелитель II / Overlord II (Ито Наоюки) [2-Сезон] [Серии 13 из 13] [2018, Фентези, магия, BDRip-HEVC 1080p] StudioBand [Wakanim] :: UZTOR.PW Трекер для всех
Регистрация ·
Имя: Пароль:  
· Забыли пароль?

Навигация по Торрент раздачам и Форум

 Повелитель II / Overlord II (Ито Наоюки) [2-Сезон] [Серии 13 из 13] [2018, Фентези, магия, BDRip-HEVC 1080p] StudioBand [Wakanim]

Главная  Аниме  Сериалы  Аниме Сериалы (HD)
Статистика раздачи
Нет
 
     
 
 
Автор Сообщение
  • -InVoKeR- ®
  • Не в сети
  • 5057
  • VIP пользователь

  • Пол: Мужской

  • Стаж: 9 месяцев 1 день

  • Сообщений: 284

  • Откуда: uztor.pw

  • Провайдер: UzOnline UzOnline

  • Тарифный план: Unlim 4 (99к, Мир: 4 Мбит/с, Tas-ix: 100Мбит/с)

  • Карма: 1118


  • Создавать темы 28-Июн-2019 13:28

    Повелитель / Overlord--
    Год выхода: 2018
    Страна: Япония
    Студия: Madhouse Studio
    Жанр: Фентези, магия
    Продолжительность: 00:24:10
    Перевод: Дубляж | StudioBand [Wakanim]-Режиссер: Ито Наоюки-В ролях: Хино Сатоси, Хара Юми, Уэсака Сумирэ, Като Эмири, Утияма Юми, Като Масаюки, Миякэ Кэнта, Тиба Сигэру-О фильме: Редко удаётся найти отличную онлайн-игру, в которой тебя устраивало бы абсолютно всё. Но пользователям "Иггдрасиль” несказанно повезло. Правда счастье их длилось недолго, ведь разработчики надумали закрыть эту игру. Лидер одной из самых могущественных гильдий по имени Момонга не хотел, чтобы игру закрывали и решил сидеть там до самого конца. Его желание отчасти сбылось, в час прощания с онлайн-миром Момонгу перенесло в реальный мир "Иггдрасиль”. Играй, сколько влезет. И Момонга бросился изучать, чем же этот мир отличается от онлайн-игры.
    Однажды, во время очередной миссии, одной из верных NPC Момонги по имени Шалтия промыли мозги, и она решила убить своего бывшего хозяина. Битва с ней далась ему крайне нелегко, но в итоге он сумел перехитрить Шалтию и уничтожить её. В своём замке он возрождает девушку обратно в NPC, и она вновь обретает ясность ума. Теперь нужно выяснить, что за злой умысел стоял за её действиями, и кто дёргал за ниточки марионетки, пытаясь устранить могущественного соперника?-Качество: BDRip-HEVC 1080p
    Формат: MKV
    Видео: HEVC, 1920x1080, 1417 kbps, 23.976 fps
    Аудио: Звук (Rus(int)): AC-3, 192 kbps, 48,0 KHz, 2 ch | [StudioBand]--

    Роли Озвучивали

    Момонга - Давид Петросян
    Альбедо, Хамске, Лигрид - Татьяна Борзова
    Бангай, Аура - Полина Ртищева
    Кайчо, Пики, Зарюс - Влад Дуров
    Набэ - Анна Мосолова
    Король, Эклер - Сергей Кубясян
    Коцит, Газеф, Цуа - Александр Русаков
    Лана, Шалтир, Марэ - Ирина Зиновкина
    -

    MediaInfo

    General
    Unique ID : 134017569621671325633133000828736475960 (0x64D2D85498AA1EDA63A934431E0F9338)
    Complete name : Overlord II [HEVC]\Overlord II-01 [1080p].mkv
    Format : Matroska
    Format version : Version 4 / Version 2
    File size : 279 MiB
    Duration : 24mn 9s
    Overall bit rate : 1 612 Kbps
    Movie name : Overlord II - 01: The Dawn of Despair
    Encoded date : UTC 2018-07-18 00:33:19
    Writing application : mkvmerge v25.0.0 ('Prog Noir') 64-bit
    Writing library : libebml v1.3.6 + libmatroska v1.4.9
    Writing frontend : StaxRip v1.7.0.0
    DURATION : 00:24:09.907000000
    NUMBER_OF_FRAMES : 34763
    NUMBER_OF_BYTES : 256737504
    _STATISTICS_WRITING_APP : mkvmerge v25.0.0 ('Prog Noir') 64-bit
    _STATISTICS_WRITING_DATE_UTC : 2018-07-18 00:33:19
    _STATISTICS_TAGS : BPS DURATION NUMBER_OF_FRAMES NUMBER_OF_BYTES
    Attachment : Yes / Yes / Yes / Yes / Yes / Yes / Yes / Yes / Yes / Yes / Yes / Yes / Yes
    Video
    ID : 2
    Format : V_MPEGH/ISO/HEVC
    Codec ID : V_MPEGH/ISO/HEVC
    Duration : 24mn 9s
    Bit rate : 1 388 Kbps
    Width : 1 920 pixels
    Height : 1 080 pixels
    Display aspect ratio : 16:9
    Frame rate mode : Constant
    Frame rate : 23.976 fps
    Bits/(Pixel*Frame) : 0.028
    Stream size : 240 MiB (86%)
    Default : Yes
    Forced : No
    Audio
    ID : 1
    Format : AC-3
    Format/Info : Audio Coding 3
    Mode extension : CM (complete main)
    Format settings, Endianness : Big
    Codec ID : A_AC3
    Duration : 24mn 9s
    Bit rate mode : Constant
    Bit rate : 192 Kbps
    Channel(s) : 2 channels
    Channel positions : Front: L R
    Sampling rate : 48.0 KHz
    Bit depth : 16 bits
    Compression mode : Lossy
    Stream size : 33.2 MiB (12%)
    Title : Студийная Банда
    Language : Russian
    Default : No
    Forced : No
    Menu
    00:00:00.000 : en:Prologue
    00:08:13.952 : en:Opening
    00:09:44.000 : en:Part A
    00:18:26.897 : en:Part B
    00:21:53.979 : en:Ending
    00:23:39.877 : en:Preview
    Показать сообщения:    
    Главная  Аниме  Сериалы  Аниме Сериалы (HD)

    Текущее время: 18-Авг 21:18

    Часовой пояс: UTC + 5



    Вы не можете начинать темы
    Вы не можете отвечать на сообщения
    Вы не можете редактировать свои сообщения
    Вы не можете удалять свои сообщения
    Вы не можете голосовать в опросах
    Вы не можете прикреплять файлы к сообщениям
    Вы не можете скачивать файлы