План побега 3 / Escape Plan: The Extractors (Джон Херцфелд / John Herzfeld) [2019, Боевик, триллер, BDRip 1080p] :: UZTOR.PW Трекер для всех
Регистрация ·
Имя: Пароль:  
· Забыли пароль?

Навигация по Торрент раздачам и Форум

 План побега 3 / Escape Plan: The Extractors (Джон Херцфелд / John Herzfeld) [2019, Боевик, триллер, BDRip 1080p]

Главная  Кинофильмы  Зарубежные кинофильмы  HD
Статистика раздачи
Нет
 
     
 
 
Автор Сообщение
  • Phantom66 ®
  • Не в сети
  • 5198
  • Пол: Мужской

  • Стаж: 6 месяцев 17 дней

  • Сообщений: 15

  • Провайдер: UzOnline UzOnline

  • Тарифный план: UNLIM 10

  • Карма: 15


  • Создавать темы 28-Июн-2019 12:00

    План побега 3
    Escape Plan: The Extractors


    Год выпуска: 2019
    Выпущено: США
    Продолжительность: 01:27:34
    Жанр: Боевик, триллер
    Перевод: Профессиональный многоголосый СВ Студия
    Субтитры: Английские
    Режиссер: Джон Херцфелд / John Herzfeld
    В ролях: Сильвестр Сталлоне, Дэйв Батиста, Фифти Сент, Джейми Кинг, Макс Чжан, Девон Сава, Гарри Шам мл., Расселл Вонг, Дэниэл Бернхард, Лидия Халл

    Непревзойденный взломщик тюрем Рэй Бреслин опять ввязался в смертельно опасную авантюру: вместе со своей командой он берётся разыскать похищенную дочь своего друга - бизнесмена из Гонконга. Нити расследования приводят к одной из самых секретных тюрем Америки, которая называется «Пункт Дьявола».
    Качество: BDRip 1080p
    Формат: MKV
    Видео: AVC, 1920x800 (16:9), 23.976 fps, 12.8 Mb/s
    Аудио: AC-3, 48.0 kHz, 6 ch, 640 kb/s (Russian)
    Аудио: DTS, 48.0 kHz, 6 ch, 1509 kb/s (English)

    ОтчетМедиаИнфо:

    General
    Unique ID : 188347077086181261455391892174712074392 (0x8DB253DB9D6FBD1BAA7FEA21C8D3F098)
    Complete name : G:\Escape.Plan.The.Extractors.2019.mkv
    Format : Matroska
    Format version : Version 4
    File size : 8.81 GiB
    Duration : 1 h 27 min
    Overall bit rate : 14.4 Mb/s
    Encoded date : UTC 2019-06-26 17:31:38
    Writing application : mkvmerge v7.5.0 ('Glass Culture') 32bit built on Jan 4 2015 16:37:25
    Writing library : libebml v1.3.1 + libmatroska v1.4.2
    Video
    ID : 1
    Format : AVC
    Format/Info : Advanced Video Codec
    Format profile : High@L4.1
    Format settings : CABAC / 4 Ref Frames
    Format settings, CABAC : Yes
    Format settings, ReFrames : 4 frames
    Codec ID : V_MPEG4/ISO/AVC
    Duration : 1 h 27 min
    Bit rate : 12.8 Mb/s
    Width : 1 920 pixels
    Height : 800 pixels
    Display aspect ratio : 2.40:1
    Frame rate mode : Constant
    Frame rate : 23.976 (24000/1001) FPS
    Color space : YUV
    Chroma subsampling : 4:2:0
    Bit depth : 8 bits
    Scan type : Progressive
    Bits/(Pixel*Frame) : 0.347
    Stream size : 7.49 GiB (85%)
    Writing library : x264 core 142 r2479 dd79a61
    Encoding settings : cabac=1 / ref=1 / deblock=1:0:0 / analyse=0x3:0x3 / me=dia / subme=1 / psy=1 / psy_rd=1.00:0.00 / mixed_ref=0 / me_range=16 / chroma_me=1 / trellis=0 / 8x8dct=1 / cqm=0 / deadzone=21,11 / fast_pskip=1 / chroma_qp_offset=0 / threads=12 / lookahead_threads=2 / sliced_threads=0 / nr=0 / decimate=1 / interlaced=0 / bluray_compat=0 / constrained_intra=0 / bframes=3 / b_pyramid=2 / b_adapt=1 / b_bias=0 / direct=1 / weightb=1 / open_gop=0 / weightp=1 / keyint=240 / keyint_min=24 / scenecut=40 / intra_refresh=0 / rc_lookahead=0 / rc=abr / mbtree=0 / bitrate=12782 / ratetol=1.0 / qcomp=0.60 / qpmin=0 / qpmax=69 / qpstep=4 / vbv_maxrate=62500 / vbv_bufsize=78125 / nal_hrd=none / filler=0 / ip_ratio=1.40 / pb_ratio=1.30 / aq=1:1.00
    Default : Yes
    Forced : No
    Color range : Limited
    Color primaries : BT.709
    Transfer characteristics : BT.709
    Matrix coefficients : BT.709
    Audio #1
    ID : 2
    Format : AC-3
    Format/Info : Audio Coding 3
    Commercial name : Dolby Digital
    Codec ID : A_AC3
    Duration : 1 h 27 min
    Bit rate mode : Constant
    Bit rate : 640 kb/s
    Channel(s) : 6 channels
    Channel layout : L R C LFE Ls Rs
    Sampling rate : 48.0 kHz
    Frame rate : 31.250 FPS (1536 SPF)
    Bit depth : 16 bits
    Compression mode : Lossy
    Delay relative to video : -83 ms
    Stream size : 401 MiB (4%)
    Title : СВ студия
    Language : Russian
    Service kind : Complete Main
    Default : Yes
    Forced : No
    Audio #2
    ID : 3
    Format : DTS
    Format/Info : Digital Theater Systems
    Codec ID : A_DTS
    Duration : 1 h 27 min
    Bit rate mode : Constant
    Bit rate : 1 509 kb/s
    Channel(s) : 6 channels
    Channel layout : C L R Ls Rs LFE
    Sampling rate : 48.0 kHz
    Frame rate : 93.750 FPS (512 SPF)
    Bit depth : 24 bits
    Compression mode : Lossy
    Stream size : 945 MiB (10%)
    Language : English
    Default : No
    Forced : No
    Text
    ID : 4
    Format : UTF-8
    Codec ID : S_TEXT/UTF8
    Codec ID/Info : UTF-8 Plain Text
    Duration : 1 h 20 min
    Bit rate : 41 b/s
    Count of elements : 847
    Stream size : 24.2 KiB (0%)
    Language : English
    Default : No
    Forced : No
    Menu
    00:00:00.000 : :Chapter 1
    00:04:06.162 : :Chapter 2
    00:07:29.198 : :Chapter 3
    00:12:32.585 : :Chapter 4
    00:19:09.773 : :Chapter 5
    00:23:18.271 : :Chapter 6
    00:25:24.231 : :Chapter 7
    00:31:17.625 : :Chapter 8
    00:37:05.264 : :Chapter 9
    00:44:02.765 : :Chapter 10
    00:47:27.803 : :Chapter 11
    00:52:19.386 : :Chapter 12
    00:56:14.245 : :Chapter 13
    01:03:39.899 : :Chapter 14
    01:09:24.076 : :Chapter 15
    01:16:47.519 : :Chapter 16


    ОТДАЧА
    10:00 до 22:00


    _________________
    [/img]
    Показать сообщения:    
    Главная  Кинофильмы  Зарубежные кинофильмы  HD

    Текущее время: 22-Авг 19:51

    Часовой пояс: UTC + 5



    Вы не можете начинать темы
    Вы не можете отвечать на сообщения
    Вы не можете редактировать свои сообщения
    Вы не можете удалять свои сообщения
    Вы не можете голосовать в опросах
    Вы не можете прикреплять файлы к сообщениям
    Вы не можете скачивать файлы