Дамбо / Dumbo (Тим Бёртон / Tim Burton) [2019, Фэнтези, семейный, BDRemux] iTunes :: UZTOR.PW Трекер для всех
Регистрация ·
Имя: Пароль:  
· Забыли пароль?

Навигация по Торрент раздачам и Форум

 Дамбо / Dumbo (Тим Бёртон / Tim Burton) [2019, Фэнтези, семейный, BDRemux] iTunes

Главная  Кинофильмы  Кинофильмы (HEVC)  UHD Blu-Ray & BDRemux
Статистика раздачи
Нет
 
     
 
 
Автор Сообщение
  • -InVoKeR- ®
  • Не в сети
  • 5057
  • VIP пользователь

  • Пол: Мужской

  • Стаж: 9 месяцев 29 дней

  • Сообщений: 293

  • Откуда: uztor.pw

  • Провайдер: UzOnline UzOnline

  • Тарифный план: Unlim 4 (Мир: 4 Мбит/с, Tas-ix: 100Мбит/с)

  • Steam: 76561198442747843

  • Telegram: i_Invoker

  • Карма: 1128


  • Наличие запрета:

  • Награды: 22 (Подробнее)
    Admin (Количество: 1) Авторитет (Количество: 1) Активный релизер 1 (Количество: 1) Активный релизер 2 (Количество: 1) Активный сидер 1 (Количество: 1)
  • Создавать темы 28-Июн-2019 00:36

    Дамбо / Dumbo-- Год выпуска: 2019
    Страна: США
    Студия: Walt Disney Pictures, Tim Burton Productions, Infinite Detective
    Жанр: Фэнтези, семейный
    Продолжительность: 01:51:56
    Перевод: Дублированный iTunes-Режиссер: Тим Бёртон / Tim Burton-В ролях: Колин Фаррелл, Майкл Китон, Дэнни ДеВито, Ева Грин, Алан Аркин, Нико Паркер, Финли Хоббинс, Рошан Сет, Ларс Айдингер, Деобиа Опарей-Описание: Цирковой импресарио Макс Медичи назначает бывшую звезду цирка Холта Фэрриера и его детей Милли и Джо опекунами новорожденного слонёнка, чьи невероятно большие уши сразу становятся предметом для постоянных шуток и насмешек коллег Холта по цеху. Внезапно узнав, что Дамбо умеет летать, владелец цирка решает нажиться на необычных способностях слонёнка. К делу подключается энергичный предприниматель В. А. Вэндевер, который решает сделать из малыша Дамбо главную звезду своего нового грандиозного развлекательного предприятия «Сказочная страна».-Качество: UHD BDRemux 2160p
    Формат: MKV
    Видео: 3840x2160 at 23.976 fps, MPEG-H HEVC HDR Video, 58200 kbps avg
    Аудио #01: 48 kHz, AC3, 5.1, 384 Kbps | iTunes | RUS
    Аудио #02: 48 kHz, TrueHD, 7.1, 4916 Kbps | Оригинал | ENG
    Аудио #03: 48 kHz, AC3, 5.1, 640 Kbps | Оригинал | ENG
    Субтитры: Русские (Forced, full), английские
    Главы: Есть--

    Тех. инфо

    General
    Unique ID : 286542652876007767027662428402195093311 (0xD7921B8883E1AE9230EB227831E3D73F)
    Complete name : D:Video111Dumbo.2019.BDREMUX.2160p.HDR.seleZen.mkv
    Format : Matroska
    Format version : Version 4
    File size : 50.2 GiB
    Duration : 1 h 51 min
    Overall bit rate mode : Variable
    Overall bit rate : 64.2 Mb/s
    Movie name : Dumbo 2019 4K from селезень
    Encoded date : UTC 2019-06-27 18:50:13
    Writing application : mkvmerge v35.0.0 ('All The Love In The World') 64-bit
    Writing library : libebml v1.3.9 + libmatroska v1.5.2
    Video
    ID : 1
    Format : HEVC
    Format/Info : High Efficiency Video Coding
    Format profile : Main 10@L5.1@High
    HDR format : SMPTE ST 2086, HDR10 compatible
    Codec ID : V_MPEGH/ISO/HEVC
    Duration : 1 h 51 min
    Bit rate : 58.2 Mb/s
    Width : 3 840 pixels
    Height : 2 160 pixels
    Display aspect ratio : 16:9
    Frame rate mode : Constant
    Frame rate : 23.976 (24000/1001) FPS
    Color space : YUV
    Chroma subsampling : 4:2:0 (Type 2)
    Bit depth : 10 bits
    Bits/(Pixel*Frame) : 0.293
    Stream size : 45.5 GiB (91%)
    Language : English
    Default : Yes
    Forced : No
    Color range : Limited
    Color primaries : BT.2020
    Transfer characteristics : PQ
    Matrix coefficients : BT.2020 non-constant
    Mastering display color pri : Display P3
    Mastering display luminance : min: 0.0050 cd/m2, max: 4000 cd/m2
    Audio #1
    ID : 2
    Format : AC-3
    Format/Info : Audio Coding 3
    Commercial name : Dolby Digital
    Codec ID : A_AC3
    Duration : 1 h 51 min
    Bit rate mode : Constant
    Bit rate : 384 kb/s
    Channel(s) : 6 channels
    Channel layout : L R C LFE Ls Rs
    Sampling rate : 48.0 kHz
    Frame rate : 31.250 FPS (1536 SPF)
    Bit depth : 16 bits
    Compression mode : Lossy
    Stream size : 307 MiB (1%)
    Title : iTunes
    Language : Russian
    Service kind : Complete Main
    Default : Yes
    Forced : Yes
    Audio #2
    ID : 3
    Format : MLP FBA 16-ch
    Format/Info : Meridian Lossless Packing FBA with 16-channel presentation
    Commercial name : Dolby TrueHD with Dolby Atmos
    Codec ID : A_TRUEHD
    Duration : 1 h 51 min
    Bit rate mode : Variable
    Bit rate : 4 916 kb/s
    Maximum bit rate : 7 476 kb/s
    Channel(s) : 8 channels
    Channel layout : L R C LFE Ls Rs Lb Rb
    Sampling rate : 48.0 kHz
    Frame rate : 1 200.000 FPS (40 SPF)
    Compression mode : Lossless
    Stream size : 3.84 GiB (8%)
    Title : Original
    Language : English
    Default : No
    Forced : No
    Number of dynamic objects : 13
    Bed channel count : 1 channel
    Bed channel configuration : LFE
    Audio #3
    ID : 4
    Format : AC-3
    Format/Info : Audio Coding 3
    Commercial name : Dolby Digital
    Codec ID : A_AC3
    Duration : 1 h 51 min
    Bit rate mode : Constant
    Bit rate : 640 kb/s
    Channel(s) : 6 channels
    Channel layout : L R C LFE Ls Rs
    Sampling rate : 48.0 kHz
    Frame rate : 31.250 FPS (1536 SPF)
    Bit depth : 16 bits
    Compression mode : Lossy
    Stream size : 512 MiB (1%)
    Language : English
    Service kind : Complete Main
    Default : No
    Forced : No
    Text #1
    ID : 5
    Format : UTF-8
    Codec ID : S_TEXT/UTF8
    Codec ID/Info : UTF-8 Plain Text
    Duration : 1 h 41 min
    Bit rate : 1 b/s
    Count of elements : 17
    Stream size : 838 Bytes (0%)
    Title : Forced
    Language : Russian
    Default : Yes
    Forced : Yes
    Text #2
    ID : 6
    Format : UTF-8
    Codec ID : S_TEXT/UTF8
    Codec ID/Info : UTF-8 Plain Text
    Duration : 1 h 51 min
    Bit rate : 57 b/s
    Count of elements : 1172
    Stream size : 47.2 KiB (0%)
    Title : Full
    Language : Russian
    Default : No
    Forced : No
    Text #3
    ID : 7
    Format : UTF-8
    Codec ID : S_TEXT/UTF8
    Codec ID/Info : UTF-8 Plain Text
    Duration : 1 h 41 min
    Bit rate : 41 b/s
    Count of elements : 1209
    Stream size : 31.1 KiB (0%)
    Title : Full
    Language : English
    Default : No
    Forced : No
    Text #4
    ID : 8
    Format : UTF-8
    Codec ID : S_TEXT/UTF8
    Codec ID/Info : UTF-8 Plain Text
    Duration : 1 h 43 min
    Bit rate : 51 b/s
    Count of elements : 1565
    Stream size : 39.4 KiB (0%)
    Title : SDH
    Language : English
    Default : No
    Forced : No
    Text #5
    ID : 9
    Format : UTF-8
    Codec ID : S_TEXT/UTF8
    Codec ID/Info : UTF-8 Plain Text
    Duration : 1 h 43 min
    Bit rate : 75 b/s
    Count of elements : 1565
    Stream size : 56.9 KiB (0%)
    Title : SDH Colored
    Language : English
    Default : No
    Forced : No
    Menu
    00:00:00.000 : en:Casey Jr.'s Back
    00:02:49.461 : en:Homecoming
    00:06:46.072 : en:Medici's Investment
    00:11:23.766 : en:Baby Jumbo
    00:16:33.993 : en:Welcome To The Circus
    00:19:20.493 : en:Under The Big Top
    00:26:08.233 : en:"Baby Mine"
    00:27:46.331 : en:Goodbye, Mrs. Jumbo
    00:31:07.783 : en:Magic Feather
    00:35:09.024 : en:"Fly, Dumbo, Fly!"
    00:40:44.984 : en:V. A. Vandevere
    00:46:44.927 : en:Dreamland
    00:50:23.938 : en:Preparing For Takeoff
    00:57:15.265 : en:Pink Elephants
    01:01:53.126 : en:Queen Of The Heavens
    01:07:18.785 : en:Nightmare Island
    01:10:11.666 : en:Separated Again
    01:14:47.858 : en:The Troupe Unites
    01:18:05.055 : en:One Last Time
    01:27:55.896 : en:The Rescue
    01:37:09.532 : en:Saying Goodbye
    01:39:41.100 : en:Anything Is Possible
    01:44:02.611 : en:End Credits
    Показать сообщения:    
    Главная  Кинофильмы  Кинофильмы (HEVC)  UHD Blu-Ray & BDRemux

    Текущее время: 16-Сен 20:32

    Часовой пояс: UTC + 5



    Вы не можете начинать темы
    Вы не можете отвечать на сообщения
    Вы не можете редактировать свои сообщения
    Вы не можете удалять свои сообщения
    Вы не можете голосовать в опросах
    Вы не можете прикреплять файлы к сообщениям
    Вы не можете скачивать файлы