Последние любовники / Porto (Гейб Клингер / Gabe Klinger) [2016, Драма, мелодрама, BDRip 1080p] iTunes :: UZTOR.PW Трекер для всех
Регистрация ·
Имя: Пароль:  
· Забыли пароль?

Навигация по Торрент раздачам и Форум

 Последние любовники / Porto (Гейб Клингер / Gabe Klinger) [2016, Драма, мелодрама, BDRip 1080p] iTunes

Главная  Кинофильмы  Зарубежные кинофильмы  HD
Статистика раздачи
Нет
 
     
 
 
Автор Сообщение
  • -InVoKeR- ®
  • Не в сети
  • 5057
  • VIP пользователь

  • Пол: Мужской

  • Стаж: 7 месяцев 29 дней

  • Сообщений: 277

  • Откуда: uztor.pw

  • Провайдер: UzOnline UzOnline

  • Тарифный план: Unlim 4 (99к, Мир: 4 Мбит/с, Tas-ix: 100Мбит/с)

  • Карма: 1111


  • Создавать темы 23-Июн-2019 15:11

    Последние любовники / Porto-- Год выпуска: 2016
    Страна: Португалия, Франция
    Жанр: драма, мелодрама
    Продолжительность: 01:16:47
    Перевод: Профессиональное (многоголосое) iTunes-Режиссер: Гейб Клингер / Gabe Klinger-В ролях: Люси Лукас, Антон Ельчин, Шанталь Акерман, Флори Оклер, Франсуаза Лебрун-Описание: Молодой американец Джек, добровольный изгнанник и одиночка, в прибрежном городке сталкивается с красавицей-француженкой Мати. Испытывая сшибающее с ног влечение, решаясь перейти от тайных взглядов к открытому ухаживанию, Джек ввязывается в роман с роковой женщиной.-Качество: BDRip 1080p
    Формат: MKV
    Видео: AVC, 10.7 Mb/s, 1920x1072
    Аудио: Russian: AC3, 384 Kb/s (6 ch)
    Аудио: English: DTS, 1509 Kb/s (6 ch)
    Субтитры: English--

    Тех. инфо

    General
    Unique ID : 212245676409211939225087470102758562180 (0x9FAD07C6BE1FA09396779BD362281984)
    Complete name : Porto.2016.BDRip.1080.mkv
    Format : Matroska
    Format version : Version 4
    File size : 6.76 GiB
    Duration : 1 h 16 min
    Overall bit rate : 12.6 Mb/s
    Encoded date : UTC 2019-06-21 17:38:08
    Writing application : mkvmerge v8.3.0 ('Over the Horizon') 64bit
    Writing library : libebml v1.3.1 + libmatroska v1.4.2
    Video
    ID : 1
    Format : AVC
    Format/Info : Advanced Video Codec
    Format profile : High@L4.1
    Format settings : CABAC / 4 Ref Frames
    Format settings, CABAC : Yes
    Format settings, ReFrames : 4 frames
    Codec ID : V_MPEG4/ISO/AVC
    Duration : 1 h 16 min
    Bit rate : 10.7 Mb/s
    Width : 1 920 pixels
    Height : 1 072 pixels
    Display aspect ratio : 16:9
    Frame rate mode : Constant
    Frame rate : 23.976 (24000/1001) FPS
    Color space : YUV
    Chroma subsampling : 4:2:0
    Bit depth : 8 bits
    Scan type : Progressive
    Bits/(Pixel*Frame) : 0.217
    Stream size : 5.61 GiB (83%)
    Title : ELEKTRI4KA.UNIONGANG
    Writing library : x264 core 155 r2901 7d0ff22
    Encoding settings : cabac=1 / ref=4 / deblock=1:-3:-3 / analyse=0x3:0x133 / me=umh / subme=9 / psy=1 / psy_rd=1.00:0.00 / mixed_ref=1 / me_range=16 / chroma_me=1 / trellis=2 / 8x8dct=1 / cqm=0 / deadzone=21,11 / fast_pskip=0 / chroma_qp_offset=-2 / threads=24 / lookahead_threads=2 / sliced_threads=0 / nr=0 / decimate=1 / interlaced=0 / bluray_compat=0 / constrained_intra=0 / bframes=3 / b_pyramid=2 / b_adapt=1 / b_bias=0 / direct=3 / weightb=1 / open_gop=0 / weightp=2 / keyint=240 / keyint_min=24 / scenecut=40 / intra_refresh=0 / rc_lookahead=50 / rc=2pass / mbtree=1 / bitrate=10718 / ratetol=1.0 / qcomp=0.60 / qpmin=0 / qpmax=69 / qpstep=4 / cplxblur=20.0 / qblur=0.5 / ip_ratio=1.40 / aq=1:1.00
    Language : English
    Default : Yes
    Forced : No
    Audio #1
    ID : 2
    Format : AC-3
    Format/Info : Audio Coding 3
    Commercial name : Dolby Digital
    Codec ID : A_AC3
    Duration : 1 h 16 min
    Bit rate mode : Constant
    Bit rate : 384 kb/s
    Channel(s) : 6 channels
    Channel layout : L R C LFE Ls Rs
    Sampling rate : 48.0 kHz
    Frame rate : 31.250 FPS (1536 SPF)
    Bit depth : 16 bits
    Compression mode : Lossy
    Stream size : 211 MiB (3%)
    Title : iTunes
    Language : Russian
    Service kind : Complete Main
    Default : Yes
    Forced : No
    Audio #2
    ID : 3
    Format : DTS
    Format/Info : Digital Theater Systems
    Codec ID : A_DTS
    Duration : 1 h 16 min
    Bit rate mode : Constant
    Bit rate : 1 509 kb/s
    Channel(s) : 6 channels
    Channel layout : C L R Ls Rs LFE
    Sampling rate : 48.0 kHz
    Frame rate : 93.750 FPS (512 SPF)
    Bit depth : 24 bits
    Compression mode : Lossy
    Stream size : 829 MiB (12%)
    Language : English
    Default : No
    Forced : No
    Text #1
    ID : 4
    Format : UTF-8
    Codec ID : S_TEXT/UTF8
    Codec ID/Info : UTF-8 Plain Text
    Title : English forced
    Language : English
    Default : Yes
    Forced : Yes
    Text #2
    ID : 5
    Format : UTF-8
    Codec ID : S_TEXT/UTF8
    Codec ID/Info : UTF-8 Plain Text
    Title : English
    Language : English
    Default : No
    Forced : No
    Text #3
    ID : 6
    Format : UTF-8
    Codec ID : S_TEXT/UTF8
    Codec ID/Info : UTF-8 Plain Text
    Title : English SDH
    Language : English
    Default : No
    Forced : No
    Menu
    00:00:00.000 : en:00:00:00.000
    00:04:22.762 : en:00:04:22.762
    00:11:23.683 : en:00:11:23.683
    00:19:22.661 : en:00:19:22.661
    00:24:37.643 : en:00:24:37.643
    00:33:47.776 : en:00:33:47.776
    00:42:17.744 : en:00:42:17.744
    00:49:33.929 : en:00:49:33.929
    01:00:12.943 : en:01:00:12.943
    01:10:35.022 : en:01:10:35.022
    Показать сообщения:    
    Главная  Кинофильмы  Зарубежные кинофильмы  HD

    Текущее время: 17-Июл 14:41

    Часовой пояс: UTC + 5



    Вы не можете начинать темы
    Вы не можете отвечать на сообщения
    Вы не можете редактировать свои сообщения
    Вы не можете удалять свои сообщения
    Вы не можете голосовать в опросах
    Вы не можете прикреплять файлы к сообщениям
    Вы не можете скачивать файлы