Лига справедливости / Justice League (Зак Снайдер / Zack Snyder) [2017, Фантастика, фэнтези, боевик, приключения, BDRip 720p | 60 fps] :: UZTOR.PW Трекер для всех
Регистрация ·
Имя: Пароль:  
· Забыли пароль?

Навигация по Торрент раздачам и Форум

 Лига справедливости / Justice League (Зак Снайдер / Zack Snyder) [2017, Фантастика, фэнтези, боевик, приключения, BDRip 720p | 60 fps]

Главная  Кинофильмы  Кинофильмы (48-120 FPS)
Статистика раздачи
Нет
 
     
 
 
Автор Сообщение
  • -InVoKeR- ®
  • Не в сети
  • 5057
  • VIP пользователь

  • Пол: Мужской

  • Стаж: 9 месяцев 5 дней

  • Сообщений: 286

  • Откуда: uztor.pw

  • Провайдер: UzOnline UzOnline

  • Тарифный план: Unlim 4 (99к, Мир: 4 Мбит/с, Tas-ix: 100Мбит/с)

  • Карма: 1118


  • Создавать темы 21-Июн-2019 10:30

    Лига справедливости
    Justice League
    --
    Год выхода: 2017
    Страна: США, Великобритания, Канада
    Жанр: фантастика, фэнтези, боевик, приключения
    Продолжительность: 02:00:02
    Перевод: Дублированный-Режиссер: Зак Снайдер-В ролях: Галь Гадот, Робин Райт, Джейсон Момоа, Конни Нильсен, Эми Адамс, Бен Аффлек, Эзра Миллер, Эмбер Хёрд, Генри Кавилл, Дайан Лэйн-Описание: Брюс Уэйн, вдохновленный самопожертвованием Супермена, вновь обретает веру в человечество. Он заручается поддержкой новой союзницы, Дианы Принс, чтобы сразиться с еще более могущественным противником. Бэтмен и Чудо-Женщина быстро набирают команду сверхлюдей для борьбы с пробудившейся угрозой. Но несмотря на уникальный состав отряда супергероев — Бэтмен, Чудо-Женщина, Аквамэн, Киборг и Флэш, — быть может, спасать планету от вторжения катастрофических масштабов уже слишком поздно.- -Качество: BDRip 720p (исходник Blu-ray Disc Remux)
    Контейнер: MKV (расширение файла)
    Видео: 1280x720, 6700 Кбит/сек, 60.000 кадр/сек, AVC, x264, High@L4.1, 16:9, 0.121 Бит
    Аудио 1: AC-3, 448 Кбит/сек, 6 канала(ов), 48,0 КГц - Дублированный / Русский
    Аудио 2: AC-3, 448 Кбит/сек, 6 канала(ов), 48,0 КГц - Оригинал / Английский
    Субтитры: Русские | Полные, Английские | Полные
    Форсированные субтитры: Русские
    Чаптеры (Главы): Есть--

    MediaInfo

    Format : Matroska
    Format version : Version 2
    File size : 6.37 GiB
    Duration : 2 h 0 min
    Overall bit rate : 7 601 kb/s
    Movie name : Justice League.(2017).BDRip.720p.[envy].[60fps]
    Encoded date : UTC 2018-03-14 12:06:12
    Writing application : mkvmerge v5.8.0 ('No Sleep / Pillow') built on Sep 2 2012 15:37:04
    Writing library : libebml v1.2.3 + libmatroska v1.3.0
    Video
    ID : 1
    Format : AVC
    Format/Info : Advanced Video Codec
    Format profile : High@L4.1
    Format settings : CABAC / 9 Ref Frames
    Format settings, CABAC : Yes
    Format settings, ReFrames : 9 frames
    Codec ID : V_MPEG4/ISO/AVC
    Duration : 2 h 0 min
    Bit rate : 6 700 kb/s
    Width : 1 280 pixels
    Height : 720 pixels
    Display aspect ratio : 16:9
    Frame rate mode : Constant
    Frame rate : 60.000 FPS
    Color space : YUV
    Chroma subsampling : 4:2:0
    Bit depth : 8 bits
    Scan type : Progressive
    Bits/(Pixel*Frame) : 0.121
    Stream size : 5.50 GiB (86%)
    Title : Justice League.(2017).BDRip.720p.[envy].[60fps]
    Writing library : x264 core 146 r2538 121396c
    Encoding settings : cabac=1 / ref=9 / deblock=1:0:0 / analyse=0x3:0x113 / me=umh / subme=11 / psy=1 / psy_rd=1.00:0.00 / mixed_ref=1 / me_range=24 / chroma_me=1 / trellis=2 / 8x8dct=1 / cqm=0 / deadzone=21,11 / fast_pskip=0 / chroma_qp_offset=-2 / threads=12 / lookahead_threads=1 / sliced_threads=0 / nr=0 / decimate=1 / interlaced=0 / bluray_compat=0 / constrained_intra=0 / bframes=5 / b_pyramid=2 / b_adapt=2 / b_bias=0 / direct=3 / weightb=1 / open_gop=0 / weightp=2 / keyint=250 / keyint_min=25 / scenecut=40 / intra_refresh=0 / rc=2pass / mbtree=0 / bitrate=6700 / ratetol=1.0 / qcomp=0.60 / qpmin=0 / qpmax=69 / qpstep=4 / cplxblur=20.0 / qblur=0.5 / ip_ratio=1.40 / pb_ratio=1.30 / aq=3:1.00
    Language : English
    Default : Yes
    Forced : No
    Audio #1
    ID : 2
    Format : AC-3
    Format/Info : Audio Coding 3
    Codec ID : A_AC3
    Duration : 2 h 0 min
    Bit rate mode : Constant
    Bit rate : 448 kb/s
    Channel(s) : 6 channels
    Channel positions : Front: L C R, Side: L R, LFE
    Sampling rate : 48.0 kHz
    Frame rate : 31.250 FPS (1536 SPF)
    Bit depth : 16 bits
    Compression mode : Lossy
    Stream size : 385 MiB (6%)
    Title : Dub
    Language : Russian
    Service kind : Complete Main
    Default : Yes
    Forced : No
    Audio #2
    ID : 3
    Format : AC-3
    Format/Info : Audio Coding 3
    Codec ID : A_AC3
    Duration : 2 h 0 min
    Bit rate mode : Constant
    Bit rate : 448 kb/s
    Channel(s) : 6 channels
    Channel positions : Front: L C R, Side: L R, LFE
    Sampling rate : 48.0 kHz
    Frame rate : 31.250 FPS (1536 SPF)
    Bit depth : 16 bits
    Compression mode : Lossy
    Stream size : 385 MiB (6%)
    Title : Eng
    Language : English
    Service kind : Complete Main
    Default : No
    Forced : No
    Text #1
    ID : 4
    Format : UTF-8
    Codec ID : S_TEXT/UTF8
    Codec ID/Info : UTF-8 Plain Text
    Title : Rus forced
    Language : Russian
    Default : Yes
    Forced : Yes
    Text #2
    ID : 5
    Format : UTF-8
    Codec ID : S_TEXT/UTF8
    Codec ID/Info : UTF-8 Plain Text
    Title : Rus full
    Language : Russian
    Default : No
    Forced : No
    Text #3
    ID : 6
    Format : UTF-8
    Codec ID : S_TEXT/UTF8
    Codec ID/Info : UTF-8 Plain Text
    Title : Eng full
    Language : English
    Default : No
    Forced : No
    Menu
    00:00:00.000 : :Chapter 1
    00:10:56.155 : :Chapter 2
    00:19:16.488 : :Chapter 3
    00:30:41.673 : :Chapter 4
    00:40:19.667 : :Chapter 5
    00:49:56.535 : :Chapter 6
    01:01:26.891 : :Chapter 7
    01:09:41.552 : :Chapter 8
    01:19:18.587 : :Chapter 9
    01:30:34.512 : :Chapter 10
    01:40:33.569 : :Chapter 11
    01:48:43.058 : :Chapter 12
    -

    ВАЖНО! Читать в первую очередь перед скачиванием!!!

    Q: Присутствуют ли артефакты на изображении?
    A: Да, есть, и будут, какие настройки скритпа не вписывай они будут постоянно! Так как это дорисованные кадры из исходных + Видео ряд обработан фильтром "Sharp"
    Q: У меня не запускается видео на компьютере?
    A: Обновите кодеки. (попробуйте другие видео проигрыватели)
    Q: У меня идет рассинхрон звука и видео?
    A: Проблема в мощности компьютера. (возможно также нужно обновить кодеки)
    Q: Что нужно для воспроизведения данного видео.
    A: Что рекомендуется для воспроизведения мной:
    Процессор: 4х ядерный
    Видео карта: минимум 512Мб. И желательно включить обработку изображения с помощью видео карты. (Деинтерлейсинг, подавление блочности и т.д.)
    ОЗУ: 2-4Гб
    Проигрыватели.
    MPC-HC (Media Player Classic - Home Cinema)
    The KMPlayer (Korean Multimedia Player) (оптимальный вариант)
    Mirillis Splash PRO (Если что то проигрыватель сам может преобразовывать видео вплоть до частоты кадров монитора. Или тех же 60fps.)
    Показать сообщения:    
    Главная  Кинофильмы  Кинофильмы (48-120 FPS)

    Текущее время: 22-Авг 19:42

    Часовой пояс: UTC + 5



    Вы не можете начинать темы
    Вы не можете отвечать на сообщения
    Вы не можете редактировать свои сообщения
    Вы не можете удалять свои сообщения
    Вы не можете голосовать в опросах
    Вы не можете прикреплять файлы к сообщениям
    Вы не можете скачивать файлы