Моя бывшая подружка / Ami-ami (Виктор Сейнт Макари / Victor St. Macari) [2018, Комедия, BDRip 1080p] iTunes :: UZTOR.PW Трекер для всех
Регистрация ·
Имя: Пароль:  
· Забыли пароль?

Навигация по Торрент раздачам и Форум

 Моя бывшая подружка / Ami-ami (Виктор Сейнт Макари / Victor St. Macari) [2018, Комедия, BDRip 1080p] iTunes

Главная  Кинофильмы  Зарубежные кинофильмы  HD
Статистика раздачи
Нет
 
     
 
 
Автор Сообщение
  • NuRKHoNoFF ®
  • Не в сети
  • 5064
  • Пол: Мужской

  • Стаж: 8 месяцев 6 дней

  • Сообщений: 539

  • Откуда: Каттакурган

  • Провайдер: TPS TPS

  • Карма: 547


  • Создавать темы 16-Июн-2019 20:03

    Моя бывшая подружка / Ami-ami -Год выпуска: 2018
    Страна: Франция
    Жанр: Комедия
    Продолжительность: 01:25:33
    Перевод: Профессиональный (многоголосый, закадровый) [iTunes]-Субтитры: Русские (forced), французские-Режиссер: Виктор Сейнт Макари / Victor St. Macari-В ролях: Уилльям Лебхил, Марго Бансийон, Джонатан Коэн, Камилль Раза, Беатрис де Стаэль, Мари-Кристин Орри, Николас Ваншыцкий, Себастьян Шассейн, Пол-Антуан Ченоз-Описание: После тяжелого разрыва с девушкой Винсент решает никогда больше не подвергать своё сердце тяжёлым ударам любви. Он съезжается со своим старым проверенным другом Нефели. Так уж случилось, что Нефели — безбашенная, эмоциональная блондинка. Главное правило их дома: никаких серьезных отношений с третьими лицами! Позволены только встречи на одну ночь, не более! Неожиданно Винсент знакомится с безрассудной шатенкой Джули и неизбежно нарушает главное правило. Что на это скажет Нефели?- -Качество: BDRip 1080p
    Формат: AVI
    Видео: MPEG-4 AVC, 1920x1040, 11.0 Mbit/s, 23.976 fps
    Аудио №1: 48 kHz, AC3, 5.1, 384 Kbps | iTunes | RUS
    Аудио №2: AC3, 6 ch, 384 Кбит/с 48 kHz, AC3, 5.1, 640 Kbps | Оригинал | FRE-

    MediaInfo

    General
    Unique ID : 32393663297448413526337356906434196302 (0x185ECAE8D603E8B664AB7A346A20F34E)
    Complete name : Ami.Ami.2018.BDRip.1080p.ExKinoRay.mkv
    Format : Matroska
    Format version : Version 4
    File size : 7.19 GiB
    Duration : 1 h 25 min
    Overall bit rate : 12.0 Mb/s
    Movie name : Ami-ami 2017 from ExKinoRay
    Encoded date : UTC 2018-06-08 22:31:44
    Writing application : mkvmerge v23.0.0 ('The Bride Said No') 64-bit
    Writing library : libebml v1.3.6 + libmatroska v1.4.9
    Video
    ID : 1
    Format : AVC
    Format/Info : Advanced Video Codec
    Format profile : High@L4.1
    Format settings : CABAC / 4 Ref Frames
    Format settings, CABAC : Yes
    Format settings, ReFrames : 4 frames
    Codec ID : V_MPEG4/ISO/AVC
    Duration : 1 h 25 min
    Bit rate : 11.0 Mb/s
    Width : 1 920 pixels
    Height : 1 040 pixels
    Display aspect ratio : 1.85:1
    Frame rate mode : Constant
    Frame rate : 23.976 (24000/1001) FPS
    Color space : YUV
    Chroma subsampling : 4:2:0
    Bit depth : 8 bits
    Scan type : Progressive
    Bits/(Pixel*Frame) : 0.230
    Stream size : 6.57 GiB (91%)
    Writing library : x264 core 150
    Encoding settings : cabac=1 / ref=4 / deblock=1:-3:-3 / analyse=0x3:0x133 / me=umh / subme=10 / psy=1 / psy_rd=1,00:10,00 / mixed_ref=1 / me_range=24 / chroma_me=1 / trellis=2 / 8x8dct=1 / cqm=0 / deadzone=21,11 / fast_pskip=1 / chroma_qp_offset=-4 / threads=12 / lookahead_threads=2 / sliced_threads=0 / nr=0 / decimate=1 / interlaced=0 / bluray_compat=0 / constrained_intra=0 / bframes=8 / b_pyramid=2 / b_adapt=2 / b_bias=0 / direct=3 / weightb=1 / open_gop=0 / weightp=2 / keyint=240 / keyint_min=24 / scenecut=40 / intra_refresh=0 / rc_lookahead=60 / rc=2pass / mbtree=1 / bitrate=11000 / ratetol=1,0 / qcomp=0,60 / qpmin=0 / qpmax=69 / qpstep=4 / cplxblur=20,0 / qblur=0,5 / vbv_maxrate=62500 / vbv_bufsize=78125 / nal_hrd=none / filler=0 / ip_ratio=1,40 / aq=1:1,00
    Language : French
    Default : Yes
    Forced : No
    Color range : Limited
    Color primaries : BT.709
    Transfer characteristics : BT.709
    Matrix coefficients : BT.709
    Audio #1
    ID : 2
    Format : AC-3
    Format/Info : Audio Coding 3
    Commercial name : Dolby Digital
    Codec ID : A_AC3
    Duration : 1 h 25 min
    Bit rate mode : Constant
    Bit rate : 384 kb/s
    Channel(s) : 6 channels
    Channel layout : L R C LFE Ls Rs
    Sampling rate : 48.0 kHz
    Frame rate : 31.250 FPS (1536 SPF)
    Bit depth : 16 bits
    Compression mode : Lossy
    Stream size : 235 MiB (3%)
    Title : iTunes
    Language : Russian
    Service kind : Complete Main
    Default : Yes
    Forced : Yes
    Audio #2
    ID : 3
    Format : AC-3
    Format/Info : Audio Coding 3
    Commercial name : Dolby Digital
    Codec ID : A_AC3
    Duration : 1 h 25 min
    Bit rate mode : Constant
    Bit rate : 640 kb/s
    Channel(s) : 6 channels
    Channel layout : L R C LFE Ls Rs
    Sampling rate : 48.0 kHz
    Frame rate : 31.250 FPS (1536 SPF)
    Bit depth : 16 bits
    Compression mode : Lossy
    Stream size : 392 MiB (5%)
    Title : Original
    Language : French
    Service kind : Complete Main
    Default : No
    Forced : No
    Text #1
    ID : 4
    Format : UTF-8
    Codec ID : S_TEXT/UTF8
    Codec ID/Info : UTF-8 Plain Text
    Duration : 37 min 43 s
    Bit rate : 3 b/s
    Count of elements : 15
    Stream size : 857 Bytes (0%)
    Title : Forced
    Language : Russian
    Default : Yes
    Forced : Yes
    Text #2
    ID : 5
    Format : UTF-8
    Codec ID : S_TEXT/UTF8
    Codec ID/Info : UTF-8 Plain Text
    Duration : 1 h 25 min
    Bit rate : 66 b/s
    Count of elements : 1486
    Stream size : 41.4 KiB (0%)
    Title : SDH
    Language : French
    Default : No
    Forced : No
    Menu
    00:00:00.000 : en:Chapter 1
    00:06:32.683 : en:Chapter 2
    00:14:46.802 : en:Chapter 3
    00:21:47.222 : en:Chapter 4
    00:31:10.368 : en:Chapter 5
    00:40:24.922 : en:Chapter 6
    00:46:53.435 : en:Chapter 7
    00:53:48.225 : en:Chapter 8
    01:00:06.436 : en:Chapter 9
    01:09:39.925 : en:Chapter 10
    01:15:05.626 : en:Chapter 11
    01:22:17.265 : en:Chapter 12


    _________________
    Показать сообщения:    
    Главная  Кинофильмы  Зарубежные кинофильмы  HD

    Текущее время: 24-Авг 22:31

    Часовой пояс: UTC + 5



    Вы не можете начинать темы
    Вы не можете отвечать на сообщения
    Вы не можете редактировать свои сообщения
    Вы не можете удалять свои сообщения
    Вы не можете голосовать в опросах
    Вы не можете прикреплять файлы к сообщениям
    Вы не можете скачивать файлы