Русское краткое. Выпуск 3 (Наталья Назарова, Дмитрий Моисеев, Амир Сальянов) [2019, Драма, WEB-DL 1080p] iTunes :: UZTOR.PW Трекер для всех
Регистрация ·
Имя: Пароль:  
· Забыли пароль?

Навигация по Торрент раздачам и Форум

 Русское краткое. Выпуск 3 (Наталья Назарова, Дмитрий Моисеев, Амир Сальянов) [2019, Драма, WEB-DL 1080p] iTunes

Главная  Кинофильмы  Российские кинофильмы  HD
Статистика раздачи
Нет
 
     
 
 
Автор Сообщение
  • NuRKHoNoFF ®
  • Не в сети
  • 5064
  • Пол: Мужской

  • Стаж: 6 месяцев 30 дней

  • Сообщений: 438

  • Откуда: Каттакурган

  • Провайдер: UzOnline UzOnline

  • Карма: 517


  • Создавать темы 16-Июн-2019 17:46

    Русское краткое. Выпуск 3 -Год выпуска: 2019
    Страна: Россия
    Жанр: Драма
    Продолжительность: 01:41:31
    Язык: Русский [iTunes]-Режиссер: Наталья Назарова, Дмитрий Моисеев, Амир Сальянов-В ролях: Инна Степанова, Евгений Константинов, Александра Дрочнева, Мария Смольникова, Владимир Свирский, Артём Соколов, Алексей Петров, Владимир Шаров, Татьяна Никонова, Любовь Овсянникова-Описание: Ровно пять историй из разных уголков России - от Архангельска до Сахалина. Современная романтическая комедия «Светлячок» была снята в Северодвинске. Музыкальный фильм «Не для речки» из Архангельска посвящен умению завязывать прочные, как морские узлы, отношения. Дежуривший на трассе казанский сотрудник ДПС, открыв багажник остановленной машины, навсегда меняет свою жизнь («Потерянный путь»). Героиня новеллы «Тамара» из Красноярска, проявляющая жесткий характер в работе, окажется беспомощной в личной жизни. Сахалинская короткометражка «В объятиях моря» в поэтической манере рассказывает историю настоящей дружбы и прощания.-Качество: WEB-DL 1080p
    Формат: MKV
    Видео: AVC, 5120 Кбит/с, 1920x1080
    Аудио: AC3, 6 ch, 384 Кбит/с-

    MediaInfo

    General
    Unique ID : 183100531193640412620186972963338876995 (0x89BFE12C8AB43A61ABB729AF3E1A7843)
    Complete name : Russkoe.Kratkoe.3.2019.WEB-DL.1080p.ELEKTRI4KA.UNIONGANG.mkv
    Format : Matroska
    Format version : Version 4
    File size : 3.90 GiB
    Duration : 1 h 41 min
    Overall bit rate : 5 494 kb/s
    Encoded date : UTC 2019-06-15 21:50:55
    Writing application : mkvmerge v8.3.0 ('Over the Horizon') 64bit
    Writing library : libebml v1.3.1 + libmatroska v1.4.2
    Video
    ID : 1
    Format : AVC
    Format/Info : Advanced Video Codec
    Format profile : High@L4
    Format settings : CABAC / 4 Ref Frames
    Format settings, CABAC : Yes
    Format settings, ReFrames : 4 frames
    Codec ID : V_MPEG4/ISO/AVC
    Duration : 1 h 41 min
    Bit rate : 5 120 kb/s
    Width : 1 920 pixels
    Height : 1 080 pixels
    Display aspect ratio : 16:9
    Frame rate mode : Constant
    Frame rate : 24.000 FPS
    Color space : YUV
    Chroma subsampling : 4:2:0
    Bit depth : 8 bits
    Scan type : Progressive
    Bits/(Pixel*Frame) : 0.103
    Stream size : 3.62 GiB (93%)
    Writing library : x264 core 148
    Encoding settings : cabac=1 / ref=3 / deblock=1:0:0 / analyse=0x3:0x113 / me=hex / subme=7 / psy=1 / psy_rd=1.00:0.00 / mixed_ref=1 / me_range=16 / chroma_me=1 / trellis=1 / 8x8dct=1 / cqm=0 / deadzone=21,11 / fast_pskip=1 / chroma_qp_offset=-2 / threads=34 / lookahead_threads=5 / sliced_threads=0 / nr=0 / decimate=1 / interlaced=0 / bluray_compat=0 / constrained_intra=0 / bframes=6 / b_pyramid=2 / b_adapt=1 / b_bias=0 / direct=1 / weightb=1 / open_gop=0 / weightp=2 / keyint=48 / keyint_min=25 / scenecut=0 / intra_refresh=0 / rc_lookahead=40 / rc=2pass / mbtree=1 / bitrate=5120 / ratetol=1.0 / qcomp=0.60 / qpmin=0 / qpmax=69 / qpstep=4 / cplxblur=20.0 / qblur=0.5 / vbv_maxrate=7680 / vbv_bufsize=20480 / nal_hrd=none / filler=0 / ip_ratio=1.40 / aq=1:1.00
    Default : Yes
    Forced : No
    Audio
    ID : 2
    Format : AC-3
    Format/Info : Audio Coding 3
    Commercial name : Dolby Digital
    Codec ID : A_AC3
    Duration : 1 h 41 min
    Bit rate mode : Constant
    Bit rate : 384 kb/s
    Channel(s) : 6 channels
    Channel layout : L R C LFE Ls Rs
    Sampling rate : 48.0 kHz
    Frame rate : 31.250 FPS (1536 SPF)
    Bit depth : 16 bits
    Compression mode : Lossy
    Stream size : 279 MiB (7%)
    Title : ELEKTRI4KA.UNIONGANG
    Language : Russian
    Service kind : Complete Main
    Default : Yes
    Forced : No

    Показать сообщения:    
    Главная  Кинофильмы  Российские кинофильмы  HD

    Текущее время: 17-Июл 14:54

    Часовой пояс: UTC + 5



    Вы не можете начинать темы
    Вы не можете отвечать на сообщения
    Вы не можете редактировать свои сообщения
    Вы не можете удалять свои сообщения
    Вы не можете голосовать в опросах
    Вы не можете прикреплять файлы к сообщениям
    Вы не можете скачивать файлы