Уважаемые гости сайта! Добро Пожаловать на наш торрент трекер,где Вы можете бесплатно скачать любой Софт,Фильмы,Музыку и многое другое! А так же постоянно ведется набор модераторов и релизеров. Зарегистрируйтесь сейчас, чтобы получить доступ ко всем функциям. После регистрации или входа на сайт вы сможете создавать темы, отвечать на сообщения и скачивать файлы.

Навигация по Торрент раздачам и Форум и Стол заказов и Группы

 Бесконечная ночь / Hard Night Falling (Джорджо Бруно / Giorgio Bruno) [2019, Криминал, боевик, триллер, драма, BDRip] MVO (iTunes)

Главная  Кинофильмы  Зарубежные кинофильмы
Статистика раздачи
Качаю: [ 1 ]
Сегодня идет свободное скачивание без начисления Download
 
     
 
 
 
Автор Сообщение
  • kisel ®
  • Не в сети

    Автор темы

  • 7467
  • Пол: Мужской

  • Стаж: 25 дней

  • Сообщений: 26

  • Провайдер: UzOnline UzOnline

  • Карма: 0


  • Нет нарушения:

  • Награды: Нет
  • Создавать темы 09-Янв-2021 22:50

    Информация о фильме
    Название: Бесконечная ночь
    Оригинальное название: Hard Night Falling
    Год выхода: 2019
    Жанр: Боевик, триллер, драма, криминал
    Режиссер: Джорджо Бруно
    В ролях: Дольф Лундгрен, Хал Яманоути, Наталия Берн, Марио Опинато, Brice Martinet, Андреа Скардуцио, Синне Муцаэрс, Ральф Палка, Рубен Ригильо, Джиоиа Викари
    О фильме:
    Криминальный авторитет Горо планирует ограбить семью Россини. Но Горо и его головорезы не знают, что у Россини в гостях опытный агент, который борется не только за спасение заложников и добычи, а и за свою семью.


    Страна: Италия, США
    Студия: Explorer Entertainment, Sun Film Group, West Arts, ZTV Production
    Продолжительность: 01:25:36
    Перевод: Профессиональный (многоголосый, закадровый) | iTunes
    Файл
    Качество: BDRip
    Формат: AVI
    Кодек: XviD
    Видео: 720x304 (2.35:1), 23,976 fps, XviD ~ 1985 Kbps avg, 0.378 bit/pixel
    Аудио: AC3, 48 kHz, 6 ch, ~384.00 kbps avg | русский | iTunes
    Субтитры: Отсутствуют

    MI

    General
    Complete name : C:\TOR\Hard.Night.Falling.2019.BDRip.1.42Gb.MegaPeer.avi
    Format : AVI
    Format/Info : Audio Video Interleave
    File size : 1.42 GiB
    Duration : 1 h 25 min
    Overall bit rate : 2 378 kb/s
    Movie name : Бесконечная ночь / Hard Night Falling (2019)
    Director : stillet@MegaPeer
    Genre : Боевик, триллер, драма, крими
    Writing application : VirtualDubModRus 1.5.10.2 (build 2542/release)
    Writing library : VirtualDubMod build 2542/release
    Video
    ID : 0
    Format : MPEG-4 Visual
    Format profile : Advanced Simple@L5
    Format settings : BVOP1 / Custom Matrix
    Format settings, BVOP : 1
    Format settings, QPel : No
    Format settings, GMC : No warppoints
    Format settings, Matrix : Custom
    Codec ID : XVID
    Codec ID/Hint : XviD
    Duration : 1 h 25 min
    Bit rate : 1 891 kb/s
    Width : 720 pixels
    Height : 304 pixels
    Display aspect ratio : 2.35:1
    Frame rate : 23.976 (24000/1001) FPS
    Color space : YUV
    Chroma subsampling : 4:2:0
    Bit depth : 8 bits
    Scan type : Progressive
    Compression mode : Lossy
    Bits/(Pixel*Frame) : 0.360
    Stream size : 1.13 GiB (80%)
    Writing library : XviD 73
    Audio
    ID : 1
    Format : AC-3
    Format/Info : Audio Coding 3
    Commercial name : Dolby Digital
    Codec ID : 2000
    Duration : 1 h 25 min
    Bit rate mode : Constant
    Bit rate : 384 kb/s
    Channel(s) : 6 channels
    Channel layout : L R C LFE Ls Rs
    Sampling rate : 48.0 kHz
    Frame rate : 31.250 FPS (1536 SPF)
    Compression mode : Lossy
    Stream size : 235 MiB (16%)
    Alignment : Split across interleaves
    Service kind : Complete Main

    Скриншоты

    Показать сообщения:    
    Главная  Кинофильмы  Зарубежные кинофильмы

    Текущее время: 26-Янв 01:03

    Часовой пояс: UTC + 5



    Вы не можете начинать темы
    Вы не можете отвечать на сообщения
    Вы не можете редактировать свои сообщения
    Вы не можете удалять свои сообщения
    Вы не можете голосовать в опросах
    Вы не можете прикреплять файлы к сообщениям
    Вы не можете скачивать файлы