Уважаемые гости сайта! Добро Пожаловать на наш торрент трекер,где Вы можете бесплатно скачать любой Софт,Фильмы,Музыку и многое другое! А так же постоянно ведется набор модераторов и релизеров. Зарегистрируйтесь сейчас, чтобы получить доступ ко всем функциям. После регистрации или входа на сайт вы сможете создавать темы, отвечать на сообщения и скачивать файлы.

Навигация по Торрент раздачам и Форум и Стол заказов и Группы

 Вратарь Галактики (Джаник Файзиев) [2020, Приключения, фантастика, HDRip] Лицензия

Главная  Кинофильмы  Российские кинофильмы
Статистика раздачи
Нет
Сегодня идет свободное скачивание без начисления Download
 
     
 
 
 
Автор Сообщение
  • kisel ®
  • Не в сети

    Автор темы

  • 7467
  • Пол: Мужской

  • Стаж: 25 дней

  • Сообщений: 26

  • Провайдер: UzOnline UzOnline

  • Карма: 0


  • Нет нарушения:

  • Награды: Нет
  • Создавать темы 09-Янв-2021 18:30

    Информация о фильме
    Название: Вратарь Галактики
    Год выхода: 2020
    Жанр: Приключения, фантастика
    Режиссер: Джаник Файзиев
    В ролях: Евгений Романцов, Виктория Агалакова, Евгений Миронов, Иван Иванович, Елизавета Тайченачева, Мария Лисовая, Елена Яковлева, Михаил Ефремов, Дмитрий Назаров, Светлана Иванова, Вольфганг Черни, Юлия Винс, Христина Блохина, Валерия Букина, Станислав Рогачёв, Михаил Стенин, Сослан Фидаров, Полина Стремоусова, Руслан Щедрин, Александра Велескевич, Арсений Краковский, Евгений Косырев, Людмила Гошко, Лия Мао, Гэ Ян, Светлана Пермякова, Евгений Куршинский, Ксана Радченко, Александра Черкасова, Марта Тимофеева, Владимир Поглазов, Дмитрий Ярцев, Иван Федотов, Иван Егоров, Юрий Сазонов, Павел Дорофеев, Алексей Павлов, Елена Котихина, Геннадий Краковский
    О фильме:
    2071 год. Галактические войны разрушили Луну и изменили климат на Земле. Москва – в тропических лесах, а Нью-Йорк покрылся льдом. Над Москвой возвышается огромный инопланетный корабль – это стадион, на котором проходят зрелищные межгалактические соревнования по космоболу — игре, объединившей в себе спорт и гладиаторские бои. За матчами следит вся галактика. Играть в космобол могут только атлеты. Именно так называют тех, кто наделен необыкновенными способностями и может ими управлять. Космобол обожают все, кроме Антона, самого обычного парня, который всего лишь мечтает найти работу, чтобы помочь семье. Но однажды у него обнаруживают сверхспособности, и принимают в сборную. Теперь он игрок в космобол. Антон ещё не подозревает о том, какая роль уготована ему судьбой в этом матче, и что финальная игра станет сражением за Землю.

    Страна: Россия
    Студия: Телеканал «РОССИЯ 1», Бонанза Студио, Кинокомпания CTB
    Продолжительность: 01:53:43
    Язык: Русский | Лицензия
    Файл
    Формат: AVI
    Качество: HDRip
    Видео: XviD, 1381 Кбит/с, 720x304
    Звук: AC3, 6 ch, 448 Кбит/с

    MI

    General
    Complete name : C:\TOR\Вратарь Галактики.2020.HDRip.avi
    Format : AVI
    Format/Info : Audio Video Interleave
    File size : 1.46 GiB
    Duration : 1 h 53 min
    Overall bit rate : 1 839 kb/s
    Movie name : Bp4t4p.g4L4kt1k1.2020.O.HDRip.1.46Gb
    Writing application : VirtualDubMod 1.5.10.2 (build 2540/release)
    Original source form/Name : -Seriki-
    Video
    ID : 0
    Format : MPEG-4 Visual
    Format profile : Advanced Simple@L5
    Format settings : BVOP2
    Format settings, BVOP : 2
    Format settings, QPel : No
    Format settings, GMC : No warppoints
    Format settings, Matrix : Default (MPEG)
    Codec ID : XVID
    Codec ID/Hint : XviD
    Duration : 1 h 53 min
    Bit rate : 1 309 kb/s
    Width : 720 pixels
    Height : 304 pixels
    Display aspect ratio : 2.35:1
    Frame rate : 25.000 FPS
    Color space : YUV
    Chroma subsampling : 4:2:0
    Bit depth : 8 bits
    Scan type : Progressive
    Compression mode : Lossy
    Bits/(Pixel*Frame) : 0.239
    Stream size : 1.04 GiB (71%)
    Writing library : XviD 1.2.1 (UTC 2008-12-04)
    Audio
    ID : 1
    Format : AC-3
    Format/Info : Audio Coding 3
    Commercial name : Dolby Digital
    Codec ID : 2000
    Duration : 1 h 53 min
    Bit rate mode : Constant
    Bit rate : 448 kb/s
    Channel(s) : 6 channels
    Channel layout : L R C LFE Ls Rs
    Sampling rate : 48.0 kHz
    Frame rate : 31.250 FPS (1536 SPF)
    Compression mode : Lossy
    Stream size : 364 MiB (24%)
    Alignment : Split across interleaves
    Service kind : Complete Main

    Скриншоты

    Показать сообщения:    
    Главная  Кинофильмы  Российские кинофильмы

    Текущее время: 26-Янв 00:04

    Часовой пояс: UTC + 5



    Вы не можете начинать темы
    Вы не можете отвечать на сообщения
    Вы не можете редактировать свои сообщения
    Вы не можете удалять свои сообщения
    Вы не можете голосовать в опросах
    Вы не можете прикреплять файлы к сообщениям
    Вы не можете скачивать файлы