Уважаемые гости сайта! Добро Пожаловать на наш торрент трекер,где Вы можете бесплатно скачать любой Софт,Фильмы,Музыку и многое другое! А так же постоянно ведется набор модераторов и релизеров. Зарегистрируйтесь сейчас, чтобы получить доступ ко всем функциям. После регистрации или входа на сайт вы сможете создавать темы, отвечать на сообщения и скачивать файлы.

До нового года осталось

Навигация по Торрент раздачам и Форум и Стол заказов и Группы

 В подземелье я пойду, там красавицу найду! / Dungeon ni Deai wo Motomeru no wa Machigatteiru Darou ka III [TV-3] [6 из 12] (Хидэки Татибана) [2020, экшен, приключения, комедия, романтика, фэнтези, WEBRip 1080p] DUB (StudioBand)

Главная  Аниме  Сериалы  Аниме Сериалы (HD)
Статистика раздачи
Нет
Сегодня идет свободное скачивание без начисления Download
 
     
 
 
 
Автор Сообщение
  • Создавать темы 09-Ноя-2020 21:21

    В подземелье я пойду, там красавицу найду!
    Dungeon ni Deai wo Motomeru no wa Machigatteiru Darou ka III
    -- Год выхода: 2020
    Страна: Япония
    Жанр: экшен, приключения, комедия, романтика, фэнтези
    Продолжительность: ~ 00:24:00 (серия)
    Перевод: Дублированный | StudioBand [Wakanim]-Режиссеры: Хидэки Татибана-О фильме: Орарио. Город, ставший домом для многих богов, знаменитый своим подземельем, которое ведёт к неизведанным глубинам. Богиня Гестия всё так же заботится о своём единственном подопечном — начинающем авантюристе Белле Кранеле. Но теперь на юношу, которому быстрее всех на свете покорился второй уровень, многие смотрят с интересом. Значит, впереди героя ждут лабиринт, встречи и, конечно, приключения, а богине предстоит сложить «Миф о семействе» © Wakanim-Качество: WEBRip 1080p
    Формат: MKV
    Видео: H.264, 1920x1080, ~2 428 kb/s, 23.976 FPS, 8 bits
    Аудио (русский): AAC LC, 320 kb/s, 2 channels, 48.0 kHz
    Субтитры: отсутствуют--

    MI

    General
    Unique ID : 13387638189977269704087010196000936614 (0xA125D8619DFB4634BCE8BDB6A9912A6)
    Complete name : [KORSARS]_Dungeon.ni.Deai.wo.Motomeru.no.wa.Machigatteiru.Darou.ka.[S03E01].WEBRip.1080p._[StudioBand].mkv
    Format : Matroska
    Format version : Version 4
    File size : 411 MiB
    Duration : 23 min 40 s
    Overall bit rate : 2 427 kb/s
    Movie name : [KORSARS]_Dungeon.ni.Deai.wo.Motomeru.no.wa.Machigatteiru.Darou.ka.[S03E01].WEBRip.1080p._[StudioBand]
    Encoded date : UTC 2020-10-02 17:07:55
    Writing application : mkvmerge v50.0.0 ('Awakenings') 64-bit
    Writing library : libebml v1.4.0 + libmatroska v1.6.2
    Video
    ID : 1
    Format : AVC
    Format/Info : Advanced Video Codec
    Format profile : Main@L4
    Format settings : CABAC / 4 Ref Frames
    Format settings, CABAC : Yes
    Format settings, Reference : 4 frames
    Codec ID : V_MPEG4/ISO/AVC
    Duration : 23 min 40 s
    Bit rate : 2 104 kb/s
    Width : 1 920 pixels
    Height : 1 080 pixels
    Display aspect ratio : 16:9
    Frame rate mode : Constant
    Frame rate : 23.976 (24000/1001) FPS
    Color space : YUV
    Chroma subsampling : 4:2:0
    Bit depth : 8 bits
    Scan type : Progressive
    Bits/(Pixel*Frame) : 0.042
    Stream size : 356 MiB (87%)
    Title : [KORSARS]_Dungeon.ni.Deai.wo.Motomeru.no.wa.Machigatteiru.Darou.ka.[S03E01].WEBRip.1080p._[StudioBand]
    Writing library : x264 core 157 r2935 545de2f
    Encoding settings : cabac=1 / ref=3 / deblock=1:0:0 / analyse=0x1:0x111 / me=hex / subme=7 / psy=1 / psy_rd=1.00:0.00 / mixed_ref=1 / me_range=16 / chroma_me=1 / trellis=1 / 8x8dct=0 / cqm=0 / deadzone=21,11 / fast_pskip=1 / chroma_qp_offset=-2 / threads=9 / lookahead_threads=1 / sliced_threads=0 / nr=0 / decimate=1 / interlaced=0 / bluray_compat=0 / constrained_intra=0 / bframes=3 / b_pyramid=2 / b_adapt=1 / b_bias=0 / direct=1 / weightb=1 / open_gop=0 / weightp=2 / keyint=240 / keyint_min=24 / scenecut=40 / intra_refresh=0 / rc_lookahead=40 / rc=crf / mbtree=1 / crf=20.0 / qcomp=0.60 / qpmin=0 / qpmax=69 / qpstep=4 / vbv_maxrate=20000 / vbv_bufsize=25000 / crf_max=0.0 / nal_hrd=none / filler=0 / ip_ratio=1.40 / aq=1:1.00
    Default : Yes
    Forced : No
    Color range : Limited
    Color primaries : BT.709
    Transfer characteristics : BT.709
    Matrix coefficients : BT.709
    Audio
    ID : 2
    Format : AAC LC
    Format/Info : Advanced Audio Codec Low Complexity
    Codec ID : A_AAC-2
    Duration : 23 min 40 s
    Bit rate : 320 kb/s
    Channel(s) : 2 channels
    Channel layout : L R
    Sampling rate : 48.0 kHz
    Frame rate : 46.875 FPS (1024 SPF)
    Compression mode : Lossy
    Delay relative to video : -21 ms
    Stream size : 54.3 MiB (13%)
    Title : [KORSARS]_Dungeon.ni.Deai.wo.Motomeru.no.wa.Machigatteiru.Darou.ka.[S03E01].WEBRip.1080p._[StudioBand]
    Language : Russian
    Default : Yes
    Forced : No

    _________________
    Показать сообщения:    
    Главная  Аниме  Сериалы  Аниме Сериалы (HD)

    Текущее время: 04-Дек 15:50

    Часовой пояс: UTC + 5



    Вы не можете начинать темы
    Вы не можете отвечать на сообщения
    Вы не можете редактировать свои сообщения
    Вы не можете удалять свои сообщения
    Вы не можете голосовать в опросах
    Вы не можете прикреплять файлы к сообщениям
    Вы не можете скачивать файлы