Кулак легенды / Jing wu ying xiong [1994, Гонконг, боевик, триллер, драма, Blu-ray, HEVC, 1080р] :: UZTOR.PW Лучший трекер в зоне TAS-IX!
 
Уважаемые гости сайта! Добро Пожаловать на наш торрент трекер,где Вы можете бесплатно скачать любой Софт,Фильмы,Музыку и многое другое! А так же постоянно ведется набор модераторов и релизеров. Зарегистрируйтесь сейчас, чтобы получить доступ ко всем функциям. После регистрации или входа на сайт вы сможете создавать темы, отвечать на сообщения и скачивать файлы.

Навигация по Торрент раздачам и Форум и Стол заказов и Группы



 Кулак легенды / Jing wu ying xiong [1994, Гонконг, боевик, триллер, драма, Blu-ray, HEVC, 1080р]

Главная  Кинофильмы  Кинофильмы (HEVC)  Фильмы до 2000 года
Статистика раздачи
Нет
 
     
 
 
Автор Сообщение
  • logan7272 ®
  • Не в сети
  • Автор темы

  • 5260
  • Пол: Мужской

  • Стаж: 1 год 2 месяца

  • Сообщений: 8

  •  Узбекистан

  • Откуда: NAMANGAN

  • Провайдер: UzOnline UzOnline

  • Тарифный план: UNLIm-4

  • Карма: 10


  • Наличие запрета:

  • Награды: Нет
  • Создавать темы 16-Май-2020 19:29

    Кулак легендыJing wu ying xiong«To avenge his masters death, He'll fight like never before!»- Страна: Гонконг
    Жанр: боевик, триллер, драма
    Год выпуска: 1994
    Продолжительность: 01:43:25
    Перевод: Профессиональный многоголосый-Режиссер: Гордон Чан / Gordon Chan-В ролях: Джет Ли, Шинобу Накаяма, Сиу-ху Чин, Билли Чоу, Ясуаки Курата, Пол Чун, Ада Чои, Чеунг-Ян Юэнь, Кэрол Там-Описание: В начале XX века во время японской оккупации Китая самураи, кичившиеся своим непобедимым каратэ, жестоко убили миролюбивого учителя кунг-фу Хо. Деморализованный народ даже не помышлял о сопротивлении. Устрашились все, кроме Жень Чена, самого одаренного ученика погибшего мастера. Узнав о случившемся, герой клянется во что бы то ни стало отомстить убийцам. И когда приходит час возмездия, стонущий под пятой захватчиков Шанхай превращается в поле грандиозной битвы между дерзким одиночкой и самым опаснейшим врагом.- -Качество: Blu-ray
    Формат: MKV
    Видео: HEVC, 1918x1080, ~4999 kbps, 23,976 fps
    Аудио #1: MP3, 48 kHz, 128 kbps, 2 ch | Русский
    Аудио #2: AAC LC, 48 kHz, 85 kbps, 2 ch | Китайский
    Навигация по главам: есть-

    Media Info

    General
    Unique ID : 42832660899697114388689677006113112461 (0x2039453A67DF9399797A25E726F0818D)
    Complete name : C:\Programs\Fist of Legend 1994 (1080p Bluray x265 HEVC 10bit AAC 2.0 Chinese
    Tigole)\Jing wu ying xiong 1994 (1080p Bluray x265 HEVC 10bit AAC 2.0 Chinese Tigole).mkv
    Format : Matroska
    Format version : Version 4 / Version 2
    File size : 3.76 GiB
    Duration : 1 h 43 min
    Overall bit rate : 5 208 kb/s
    Movie name : Jing wu ying xiong 1994
    Encoded date : UTC 2020-05-14 08:51:11
    Writing application : mkvmerge v45.0.0 ('Heaven in Pennies') 32-bit
    Writing library : libebml v1.3.10 + libmatroska v1.5.2
    Video
    ID : 1
    Format : HEVC
    Format/Info : High Efficiency Video Coding
    Format profile : Main 10@L4@Main
    Codec ID : V_MPEGH/ISO/HEVC
    Duration : 1 h 43 min
    Bit rate : 4 999 kb/s
    Width : 1 918 pixels
    Height : 1 080 pixels
    Display aspect ratio : 16:9
    Frame rate mode : Constant
    Frame rate : 23.976 (24000/1001) FPS
    Color space : YUV
    Chroma subsampling : 4:2:0
    Bit depth : 10 bits
    Bits/(Pixel*Frame) : 0.101
    Stream size : 3.61 GiB (96%)
    Writing library : x265 2.5+2-18fa144d453e:[Windows][GCC 7.1.0][64 bit] 10bit
    Encoding settings : cpuid=1173503 / frame-threads=3 / numa-pools=8 / wpp / no-pmode / no-pme / no-
    psnr / ssim / log-level=2 / input-csp=1 / input-res=1918x1080 / interlace=0 / total-frames=148557 / level-idc=0 / high-
    tier=1 / uhd-bd=0 / ref=4 / no-allow-non-conformance / no-repeat-headers / annexb / no-aud / no-hrd / info / hash=0 / no-
    temporal-layers / open-gop / min-keyint=23 / keyint=250 / bframes=4 / b-adapt=2 / b-pyramid / bframe-bias=0 / rc-
    lookahead=25 / lookahead-slices=4 / scenecut=40 / no-intra-refresh / ctu=64 / min-cu-size=8 / rect / no-amp / max-tu-
    size=32 / tu-inter-depth=1 / tu-intra-depth=1 / limit-tu=0 / rdoq-level=2 / dynamic-rd=0.00 / no-ssim-rd / signhide / no-
    tskip / nr-intra=0 / nr-inter=0 / no-constrained-intra / strong-intra-smoothing / max-merge=3 / limit-refs=3 / limit-modes
    / me=3 / subme=3 / merange=57 / temporal-mvp / weightp / no-weightb / no-analyze-src-pics / deblock=0:0 / sao / no-sao-
    non-deblock / rd=4 / no-early-skip / rskip / no-fast-intra / no-tskip-fast / no-cu-lossless / no-b-intra / rdpenalty=0 /
    psy-rd=2.00 / psy-rdoq=1.00 / no-rd-refine / analysis-reuse-mode=0 / no-lossless / cbqpoffs=0 / crqpoffs=0 / rc=abr /
    bitrate=5000 / qcomp=0.60 / qpstep=4 / stats-write=0 / stats-read=2 / cplxblur=20.0 / qblur=0.5 / ipratio=1.40 /
    pbratio=1.30 / aq-mode=2 / aq-strength=1.00 / cutree / zone-count=0 / no-strict-cbr / qg-size=32 / no-rc-grain / qpmax=69 /
    qpmin=0 / no-const-vbv / sar=0 / overscan=0 / videoformat=5 / range=0 / colorprim=2 / transfer=2 / colormatrix=2 /
    chromaloc=0 / display-window=0 / max-cll=0,0 / min-luma=0 / max-luma=1023 / log2-max-poc-lsb=8 / vui-timing-info / vui-
    hrd-info / slices=1 / opt-qp-pps / opt-ref-list-length-pps / no-multi-pass-opt-rps / scenecut-bias=0.05 / no-opt-cu-delta-
    qp / no-aq-motion / no-hdr / no-hdr-opt / no-dhdr10-opt / analysis-reuse-level=5 / scale-factor=0 / refine-intra=0 /
    refine-inter=0 / refine-mv=0 / no-limit-sao / ctu-info=0
    Default : Yes
    Forced : No
    Audio #1
    ID : 2
    Format : MPEG Audio
    Format version : Version 1
    Format profile : Layer 3
    Codec ID : A_MPEG/L3
    Codec ID/Hint : MP3
    Duration : 1 h 43 min
    Bit rate mode : Constant
    Bit rate : 128 kb/s
    Channel(s) : 2 channels
    Sampling rate : 48.0 kHz
    Frame rate : 41.667 FPS (1152 spf)
    Compression mode : Lossy
    Stream size : 94.5 MiB (2%)
    Title : dub
    Writing library : LAME3.98r
    Encoding settings : -m s -V 4 -q 2 -lowpass 17 -b 128
    Language : Russian
    Default : Yes
    Forced : No
    Audio #2
    ID : 3
    Format : AAC
    Format/Info : Advanced Audio Codec
    Format profile : LC
    Codec ID : A_AAC
    Duration : 1 h 43 min
    Bit rate : 85.5 kb/s
    Channel(s) : 2 channels
    Channel positions : Front: L R
    Sampling rate : 48.0 kHz
    Frame rate : 46.875 FPS (1024 spf)
    Compression mode : Lossy
    Delay relative to video : 20 ms
    Stream size : 63.2 MiB (2%)
    Language : Chinese
    Default : No
    Forced : No
    Menu
    00:00:00.000 : en:Chapter 01
    00:02:17.846 : en:Chapter 02
    00:07:49.218 : en:Chapter 03
    00:10:02.768 : en:Chapter 04
    00:16:22.898 : en:Chapter 05
    00:21:40.882 : en:Chapter 06
    00:25:22.395 : en:Chapter 07
    00:27:44.537 : en:Chapter 08
    00:30:57.730 : en:Chapter 09
    00:34:34.363 : en:Chapter 10
    00:40:11.242 : en:Chapter 11
    00:44:50.604 : en:Chapter 12
    00:51:02.142 : en:Chapter 13
    00:53:47.974 : en:Chapter 14
    01:03:25.927 : en:Chapter 15
    01:05:55.993 : en:Chapter 16
    01:16:45.183 : en:Chapter 17
    01:18:52.310 : en:Chapter 18
    01:23:15.699 : en:Chapter 19
    01:24:53.630 : en:Chapter 20
    01:27:56.437 : en:Chapter 21
    01:36:44.799 : en:Chapter 22
    01:39:10.027 : en:Chapter 23
    01:40:54.923 : en:Chapter 24
    01:43:14.980 : en:Chapter 25
    СКРИНШОТ
    • -InVoKeR-
    • Не в сети
    • 5057
    • VIP пользователь

    • Пол: Мужской

    • Стаж: 1 год 6 месяцев

    • Сообщений: 565

    •  Узбекистан

    • Откуда: из Криптона

    • Провайдер: UzOnline UzOnline

    • Тарифный план: Unlim 4 (Мир: 4 Мбит/с, Tas-ix: 100Мбит/с)

    • Steam: 76561198442747843

    • Telegram: i_Invoker

    • Карма: 1130


    • Наличие запрета:

    • Награды: 22 (Подробнее)
      Admin (Количество: 1) Авторитет (Количество: 1) Активный релизер 1 (Количество: 1) Активный релизер 2 (Количество: 1) Активный сидер 1 (Количество: 1)
  • Создавать темы 19-Май-2020 12:19 (спустя 2 дня 16 часов)

    Это не Blu-Ray, а BDRip. Blu-Ray это диск на котором записан чисты не конвертированный исходник

    _________________
    Показать сообщения:    
    Главная  Кинофильмы  Кинофильмы (HEVC)  Фильмы до 2000 года

    Текущее время: 31-Май 12:46

    Часовой пояс: UTC + 5



    Вы не можете начинать темы
    Вы не можете отвечать на сообщения
    Вы не можете редактировать свои сообщения
    Вы не можете удалять свои сообщения
    Вы не можете голосовать в опросах
    Вы не можете прикреплять файлы к сообщениям
    Вы не можете скачивать файлы