Проклятый лес / Witches in the Woods (Джордан Баркер / Jordan Barker) [2019, Ужасы, триллер, WEB-DLRip-AVC] iTunes :: UZTOR.PW Лучший трекер в зоне TAS-IX!
Регистрация ·
Имя: Пароль:  
· Забыли пароль?
Уважаемые гости сайта! Добро Пожаловать на наш торрент трекер,где Вы можете бесплатно скачать любой Софт,Фильмы,Музыку и многое другое! А так же постоянно ведется набор модераторов и релизеров. Зарегистрируйтесь сейчас, чтобы получить доступ ко всем функциям. После регистрации или входа на сайт вы сможете создавать темы, отвечать на сообщения и скачивать файлы.

Навигация по Торрент раздачам и Форум и Стол заказов и Группы

 Проклятый лес / Witches in the Woods (Джордан Баркер / Jordan Barker) [2019, Ужасы, триллер, WEB-DLRip-AVC] iTunes

Главная  Мультфильмы  Зарубежные мультфильмы  HD-AVC
Статистика раздачи
Нет
 
     
 
 
Автор Сообщение
  • NuRKHoNoFF ®
  • Не в сети
  • Автор темы

  • 5064
  • Пол: Мужской

  • Стаж: 1 год 2 месяца

  • Сообщений: 67

  •  Узбекистан

  • Откуда: Каттакурган

  • Провайдер: TPS TPS

  • Карма: 610


  • Наличие запрета:

  • Награды: 17 (Подробнее)
    Активный релизер 1 (Количество: 1) Активный релизер 2 (Количество: 1) Активный релизер 3 (Количество: 1) Активный релизер 4 (Количество: 1) Активный релизер 5 (Количество: 1)
  • Создавать темы 10-Фев-2020 20:51

    Проклятый лес / Witches in the Woods -Год выпуска: 2019
    Страна: Канада
    Жанр: Ужасы, триллер
    Продолжительность: 01:30:31
    Перевод: Дублированный [iTunes]-Режиссер: Джордан Баркер / Jordan Barker-В ролях: Ханна Касулка, Александр Де Джорди, Крэйг Арнольд, Корбин Блю, Саша Клементс, Джеймс Гилберт, Хамберли Гонсалес, Дэвид Лафонтен, Кайл Мак, Йен Мэтьюз-Описание: Семеро друзей отправляются на машине на базу отдыха. По пути выясняется, что часть дороги закрыта, поэтому приходится сделать немаленький крюк, в результате ребята сбиваются с пути. Вскоре им начинает казаться, что они ездят кругами, а когда машина попадает в небольшую аварию, одна из девушек заявляет, что они никогда отсюда не выберутся.
    - -Качество: WEB-DLRip-AVC
    Формат: MKV
    Видео: MPEG-4 AVC, 956x396 (2.40:1), 23.976 fps, ~1531 kbps avg, 0.169 bit/pixel
    Аудио №1: 48 kHz, AC3 Dolby Digital, 3/2 (L,C,R,l,r) + LFE ch, ~384 kbps avg | iTunes
    Аудио №2: 48 kHz, AC3 Dolby Digital, 3/2 (L,C,R,l,r) + LFE ch, ~384 kbps avg | Original-

    MediaInfo

    General
    Complete name : Проклятый лес (2019) WEB-DLRip-AVC_ivanes.mkv
    Format : Matroska
    Format version : Version 2
    File size : 1.48 GiB
    Duration : 1 h 30 min
    Overall bit rate : 2 345 kb/s
    Movie name : Проклятый лес (2019) WEB-DLRip-AVC_ivanes
    Encoded date : UTC 2020-02-10 14:57:41
    Writing application : mkvmerge v4.4.0 ('Die Wiederkehr') сборка от Jan 3 2011 21:40:45
    Writing library : libebml v1.0.0 + libmatroska v1.0.0
    Cover : Yes
    Attachments : cover.jpg
    Video
    ID : 1
    Format : AVC
    Format/Info : Advanced Video Codec
    Format profile : High@L4.1
    Format settings : CABAC / 12 Ref Frames
    Format settings, CABAC : Yes
    Format settings, Reference : 12 frames
    Codec ID : V_MPEG4/ISO/AVC
    Duration : 1 h 30 min
    Bit rate : 1 531 kb/s
    Width : 956 pixels
    Height : 396 pixels
    Display aspect ratio : 2.40:1
    Frame rate mode : Constant
    Frame rate : 23.976 (24000/1001) FPS
    Color space : YUV
    Chroma subsampling : 4:2:0
    Bit depth : 8 bits
    Scan type : Progressive
    Bits/(Pixel*Frame) : 0.169
    Stream size : 991 MiB (65%)
    Title : Rip by ivanes
    Writing library : x264 core 159 r2991 1771b55
    Encoding settings : cabac=1 / ref=12 / deblock=1:-2:-2 / analyse=0x3:0x113 / me=umh / subme=10 / psy=1 / psy_rd=1.00:0.00 / mixed_ref=1 / me_range=32 / chroma_me=1 / trellis=2 / 8x8dct=1 / cqm=0 / deadzone=21,11 / fast_pskip=0 / chroma_qp_offset=-2 / threads=12 / lookahead_threads=3 / sliced_threads=0 / nr=0 / decimate=1 / interlaced=0 / bluray_compat=0 / constrained_intra=0 / bframes=12 / b_pyramid=2 / b_adapt=2 / b_bias=0 / direct=1 / weightb=1 / open_gop=0 / weightp=2 / keyint=240 / keyint_min=23 / scenecut=40 / intra_refresh=0 / rc_lookahead=60 / rc=crf / mbtree=0 / crf=17.8 / qcomp=0.60 / qpmin=0 / qpmax=69 / qpstep=4 / vbv_maxrate=50000 / vbv_bufsize=62500 / crf_max=0.0 / nal_hrd=none / filler=0 / ip_ratio=1.40 / pb_ratio=1.30 / aq=1:1.00
    Default : Yes
    Forced : No
    Statistics Tags Issue : mkvmerge v29.0.0 ('Like It Or Not') 64-bit 2020-02-10 14:57:15 / mkvmerge v4.4.0 ('Die Wiederkehr') сборка от Jan 3 2011 21:40:45 2020-02-10 14:57:41
    FromStats_BitRate : 1575994
    FromStats_Duration : 01:30:31.510000000
    FromStats_FrameCount : 130226
    FromStats_StreamSize : 1070003827
    Audio #1
    ID : 2
    Format : AC-3
    Format/Info : Audio Coding 3
    Commercial name : Dolby Digital
    Codec ID : A_AC3
    Duration : 1 h 30 min
    Bit rate mode : Constant
    Bit rate : 384 kb/s
    Channel(s) : 6 channels
    Channel layout : L R C LFE Ls Rs
    Sampling rate : 48.0 kHz
    Frame rate : 31.250 FPS (1536 SPF)
    Compression mode : Lossy
    Stream size : 249 MiB (16%)
    Title : iTunes
    Language : Russian
    Service kind : Complete Main
    Default : Yes
    Forced : No
    Audio #2
    ID : 3
    Format : AC-3
    Format/Info : Audio Coding 3
    Commercial name : Dolby Digital
    Codec ID : A_AC3
    Duration : 1 h 30 min
    Bit rate mode : Constant
    Bit rate : 384 kb/s
    Channel(s) : 6 channels
    Channel layout : L R C LFE Ls Rs
    Sampling rate : 48.0 kHz
    Frame rate : 31.250 FPS (1536 SPF)
    Compression mode : Lossy
    Stream size : 249 MiB (16%)
    Title : Original
    Language : English
    Service kind : Complete Main
    Default : No
    Forced : No

    _________________
    Показать сообщения:    
    Главная  Мультфильмы  Зарубежные мультфильмы  HD-AVC

    Текущее время: 20-Фев 22:47

    Часовой пояс: UTC + 5



    Вы не можете начинать темы
    Вы не можете отвечать на сообщения
    Вы не можете редактировать свои сообщения
    Вы не можете удалять свои сообщения
    Вы не можете голосовать в опросах
    Вы не можете прикреплять файлы к сообщениям
    Вы не можете скачивать файлы