Хеллбой / Hellboy (Нил Маршалл) [2019, Фэнтези, боевик, приключения, TS, P] :: UZTOR.PW Лучший трекер в зоне TAS-IX!
Регистрация ·
Имя: Пароль:  
· Забыли пароль?
Уважаемые гости сайта! Добро Пожаловать на наш торрент трекер,где Вы можете бесплатно скачать любой Софт,Фильмы,Музыку и многое другое! А так же постоянно ведется набор модераторов и релизеров. Зарегистрируйтесь сейчас, чтобы получить доступ ко всем функциям. После регистрации или входа на сайт вы сможете создавать темы, отвечать на сообщения и скачивать файлы.

Навигация по Торрент раздачам и Форум и Стол заказов и Группы

 Хеллбой / Hellboy (Нил Маршалл) [2019, Фэнтези, боевик, приключения, TS, P]

Главная  Технический форум  Архив
Статистика раздачи
Нет
 
     
 
 
Автор Сообщение
  • Создавать темы 13-Май-2019 11:19

    Название: Хеллбой
    Оригинальное название: Hellboy
    Год выпуска: 2019
    Жанр: Фэнтези, боевик, приключения
    Выпущено: США, Summit Entertainment, Millennium Films, Campbell Grobman Films-Режиссер: Нил Маршалл-В ролях: Дэвид Харбор, Иэн МакШейн, Милла Йовович, Марк Стэнли, Брин Глисон, Надя Керанова, Мария Тепавичарова, Ана Тобакова, Пенелопа Митчелл, Терри Рендал-Продолжительность: 01:49:22
    Перевод: Дублированный
    О фильме: Эксцентричный герой возвращается. На этот раз он вынужден отправиться в Англию, чтобы спасти мир от надвигающейся катастрофы. Недавно Хеллбой узнал о коварных планах жены Мерлина королевы Нимуэ. Она хочет уничтожить весь мир и сделать людей своими рабами. Несмотря на всю свою внешнюю устрашаемость и огромность, Хеллбой преследует исключительно гуманные цели. Он хочет спасти мир. Супергерой прекрасно понимает, насколько опасны замыслы королевы. Если вовремя не остановить её, то вскоре человечество прекратит своё существование, а те, кто выживет, будет до скончания дней своих ублажать королеву. Вести с ней переговоры и о чём-то договариваться просто бессмысленно. Хеллбой не намерен её убеждать в чём-то, он просто придёт и убьёт её. Герой знает, что королева не остановиться ни перед чем и попытается довести начатое до конца, несмотря на внешние преграды. Она известна своим дерзким характером, твёрдой волей и коварством. В такой ситуации только силой можно принудить отказаться от своих ужасных планов. Впереди Хеллбоя ждёт поистине кровавое противостояние. Каждый из участников этой битвы готов пойти на всё лишь бы одержать победу. Громила из Ада не намерен гибнуть в течении нескольких тысячелетий, так что придётся ему изрядно попотеть.
    Качество: TS (Реклама)
    Формат: AVI
    Video: Xvid 720x304 23.976fps 1654kbps [V: mpeg4 advanced simple profile, yuv420p, 720x304, 1654 kb/s]
    Audio: Dolby AC3 48000Hz stereo 256kbps [A: ac3, 48000 Hz, stereo, 256 kb/s]

    Информация по видеофайлу

    General
    Complete name                  : E:\60 FPS kino\AddsKy.PaTsaN.2O19.TS.V2.14OOMB.avi
    Format                         : AVI
    Format/Info                    : Audio Video Interleave
    File size                      : 1.46 GiB
    Duration                       : 1 h 48 min
    Overall bit rate               : 1 920 kb/s
    Writing application            : VirtualDubMod 1.5.10.2 (build 2540/release)
    Writing library                : VirtualDubMod build 2540/release
    Video
    ID                             : 0
    Format                         : MPEG-4 Visual
    Format profile                 : Advanced Simple@L5
    Format settings                : BVOP2
    Format settings, BVOP          : 2
    Format settings, QPel          : No
    Format settings, GMC           : No warppoints
    Format settings, Matrix        : Default (MPEG)
    Codec ID                       : XVID
    Codec ID/Hint                  : XviD
    Duration                       : 1 h 48 min
    Bit rate                       : 1 655 kb/s
    Width                          : 720 pixels
    Height                         : 304 pixels
    Display aspect ratio           : 2.35:1
    Frame rate                     : 23.976 (24000/1001) FPS
    Color space                    : YUV
    Chroma subsampling             : 4:2:0
    Bit depth                      : 8 bits
    Scan type                      : Progressive
    Compression mode               : Lossy
    Bits/(Pixel*Frame)             : 0.315
    Stream size                    : 1.26 GiB (86%)
    Writing library                : XviD 1.2.1 (UTC 2008-12-04)
    Audio
    ID                             : 1
    Format                         : AC-3
    Format/Info                    : Audio Coding 3
    Commercial name                : Dolby Digital
    Codec ID                       : 2000
    Duration                       : 1 h 48 min
    Bit rate mode                  : Constant
    Bit rate                       : 256 kb/s
    Channel(s)                     : 2 channels
    Channel layout                 : L R
    Sampling rate                  : 48.0 kHz
    Frame rate                     : 31.250 FPS (1536 SPF)
    Bit depth                      : 16 bits
    Compression mode               : Lossy
    Stream size                    : 199 MiB (13%)
    Alignment                      : Split accross interleaves
    Interleave, duration           : 42  ms (1.00 video frame)
    Interleave, preload duration   : 500  ms
    Service kind                   : Complete Main

    Скриншоты


    _________________

      -746

    • Сообщений: 183

    • Откуда: Космический Станция

    Создавать темы 13-Май-2019 14:14 (спустя 2 часа 55 минут)

    Топик был перенесен из форума Новинки (С рекламой) в форум DVDScr, TS, CAMRip и т.п.
    NuRKHoNoFF
  • Создавать темы 15-Май-2019 16:53 (спустя 2 дня 5 часов)

    NuRKHoNoFF писал(а):
    1230
    Цитата:
    Вой конечно реклама бор))
    Root, Рекалма борлигини биламан шунчаки уни курсатиш керак! Хеллбой / Hellboy (Нил Маршалл) [2019, Фэнтези, боевик, приключения, TS, P]
    Качество: TS (Реклама) мана бу холатда этиборлирок булинглар илтимос сизлардан!
    ОК!

    _________________

      -746

    • Сообщений: 183

    • Откуда: Космический Станция

    Создавать темы 22-Янв-2020 23:27 (спустя 8 месяцев 7 дней)

    Топик был перенесен из форума DVDScr, TS, CAMRip и т.п. в форум Архив


    -InVoKeR-
    Показать сообщения:    
    Главная  Технический форум  Архив

    Текущее время: 26-Фев 12:34

    Часовой пояс: UTC + 5



    Вы не можете начинать темы
    Вы не можете отвечать на сообщения
    Вы не можете редактировать свои сообщения
    Вы не можете удалять свои сообщения
    Вы не можете голосовать в опросах
    Вы не можете прикреплять файлы к сообщениям
    Вы не можете скачивать файлы