706 (Шраван Кумар) [2019, Фильмы 2019 года, Триллеры) WEB-DLRip Синема УС :: UZTOR.PW Трекер для всех
Регистрация ·
Имя: Пароль:  
· Забыли пароль?

Навигация по Торрент раздачам и Форум

 706 (Шраван Кумар) [2019, Фильмы 2019 года, Триллеры) WEB-DLRip Синема УС

Главная  Кинофильмы  Зарубежные кинофильмы  Новинки (С рекламой)
Статистика раздачи
Нет
 
     
 
 
Автор Сообщение
  • Root ®
  • Не в сети
  • 5065
  • Пол: Мужской

  • Стаж: 8 месяцев 6 дней

  • Сообщений: 79

  • Провайдер: UzOnline UzOnline

  • Telegram: O2602

  • Карма: 112


  • Создавать темы 13-Май-2019 11:38

    Название: 706
    Год выпуска: 2019
    Страна: Индия
    Жанр: Фильмы 2019 года, Триллеры
    Продолжительность: 01:58:38-Перевод: Профессиональный (многоголосый) [Синема УС]-Режиссер: Шраван Кумар-В ролях: Мохан Агаше, Раайо С. Бахирта, Дивья Дутта, Атул Кулкарни, Яшвит Санчети, Анупам Шийам-Описание: Суман Астана врач, чей муж Анил Астана пропал без вести 11 дней тому назад, и следователь Шехават не может его найти. Ребенок-экстрасенс раскрывает местонахождение доктора Анила и открывает двери с мрачными тайнами.
    Имеется реклама от спонсора показа-Качество: WEB-DLRip
    Формат: AVI
    Video: Xvid 720x304 23.976fps 1447kbps [V: mpeg4 advanced simple profile, yuv420p, 720x304, 1447 kb/s]
    Audio: Dolby AC3 48000Hz stereo 192kbps [A: ac3, 48000 Hz, stereo, 192 kb/s]

    Информация по видеофайлу

    General
    Complete name                  : E:\60 FPS kino\706.2019.P.WEB-DLRip.14OOMB.avi
    Format                         : AVI
    Format/Info                    : Audio Video Interleave
    File size                      : 1.37 GiB
    Duration                       : 1 h 58 min
    Overall bit rate               : 1 649 kb/s
    Writing application            : VirtualDubMod 1.10.5ru (build 2550/release)
    Writing library                : VirtualDubMod build 2550/release
    Video
    ID                             : 0
    Format                         : MPEG-4 Visual
    Format profile                 : Advanced Simple@L5
    Format settings                : BVOP2
    Format settings, BVOP          : 2
    Format settings, QPel          : No
    Format settings, GMC           : No warppoints
    Format settings, Matrix        : Default (MPEG)
    Codec ID                       : XVID
    Codec ID/Hint                  : XviD
    Duration                       : 1 h 58 min
    Bit rate                       : 1 448 kb/s
    Width                          : 720 pixels
    Height                         : 304 pixels
    Display aspect ratio           : 2.35:1
    Frame rate                     : 23.976 (24000/1001) FPS
    Color space                    : YUV
    Chroma subsampling             : 4:2:0
    Bit depth                      : 8 bits
    Scan type                      : Progressive
    Compression mode               : Lossy
    Bits/(Pixel*Frame)             : 0.276
    Stream size                    : 1.20 GiB (88%)
    Writing library                : XviD 1.2.1 (UTC 2008-12-04)
    Audio
    ID                             : 1
    Format                         : AC-3
    Format/Info                    : Audio Coding 3
    Commercial name                : Dolby Digital
    Codec ID                       : 2000
    Duration                       : 1 h 58 min
    Bit rate mode                  : Constant
    Bit rate                       : 192 kb/s
    Channel(s)                     : 2 channels
    Channel layout                 : L R
    Sampling rate                  : 48.0 kHz
    Frame rate                     : 31.250 FPS (1536 SPF)
    Bit depth                      : 16 bits
    Compression mode               : Lossy
    Stream size                    : 163 MiB (12%)
    Alignment                      : Split accross interleaves
    Interleave, duration           : 42  ms (1.00 video frame)
    Interleave, preload duration   : 500  ms
    Service kind                   : Complete Main

    Скриншоты


    _________________
    Показать сообщения:    
    Главная  Кинофильмы  Зарубежные кинофильмы  Новинки (С рекламой)

    Текущее время: 24-Авг 22:29

    Часовой пояс: UTC + 5



    Вы не можете начинать темы
    Вы не можете отвечать на сообщения
    Вы не можете редактировать свои сообщения
    Вы не можете удалять свои сообщения
    Вы не можете голосовать в опросах
    Вы не можете прикреплять файлы к сообщениям
    Вы не можете скачивать файлы