Уважаемые гости сайта! Добро Пожаловать на наш торрент трекер,где Вы можете бесплатно скачать любой Софт,Фильмы,Музыку и многое другое! А так же постоянно ведется набор модераторов и релизеров. Зарегистрируйтесь сейчас, чтобы получить доступ ко всем функциям. После регистрации или входа на сайт вы сможете создавать темы, отвечать на сообщения и скачивать файлы.

Железное небо 2: Грядущая раса / Iron Sky: The Coming Race ( Тимо Вуоренсола) [2019, Фантастика, Боевик, Комедия, Приключения] BDRip-AVC

Ответить на тему
Статистика раздачи
Нет
 
     
 
 
Автор Сообщение

Root ®

Не в сети

5065

Пол: Мужской

Стаж: 6 месяцев 9 дней

Сообщений: 69

Карма: 102

[+]

Провайдер: UzOnline UzOnline

Telegram: xq14224

Наличие запрета:




Награды: 2 (Подробнее)
Admin (Количество: 1) Speedy (Количество: 1)


[Профиль] ЛС

Создавать темы 13-Май-2019 10:49

Цитировать

Название: Железное небо 2: Грядущая раса
Оригинальное название: Iron Sky: The Coming Race
Год выхода: 2019
Страна: Финляндия, Германия, Бельгия
Продолжительность: 01:32:45
Жанр: Фантастика, Боевик, Комедия, Приключения-Режиссер: Тимо Вуоренсола-Перевод: Одноголосовой ( А.Важенин [BadBajo])-В ролях: Лара Росси, Владимир Бурлаков, Кит Дэйл, Том Грин, Юлия Дитце, Эдвард Джадж, Мартин Сваби, Эмили Атак, Удо Кир, Джон Фландерс-Описание: Спустя 20 лет после событий первого фильма остатки человечества вынуждены переселиться на ту самую базу, основанную в 1945 году сбежавшими нацистами на тёмной стороне Луны — жизнь на планете Земля погибла после разрушительной ядерной войны. Но в пустыне, лежащей посреди ядерной зимы, имеется секрет, касающийся появления человеческой расы, и этот секрет способен возродить былое величие людей или навеки похоронить их надежды на возвращение домой. Отряд людей во главе с отважной Оби Вашингтон отправится на Землю, чтобы бросить вызов армии рептилий Врила — древней космической расы, которая захватила половину галактики и Землю в том числе.
Формат: MKV
Качество: BDRip-AVC
Видео: MPEG-4 AVC, 1024х428 (2.40:1), 2160 Kbit/s, 23.976 fps, 0,206 bpp
Аудио 1: 48 kHz, AC3, 5.1 ch, 448 Kbps | RUS |
Аудио 2: 48 kHz, AC3, 5.1 ch, 448 Kbps | ENG |
Субтитры: Английские

Информация по видеофайлу

General
Unique ID                      : 245248739607957415474162533882340093830 (0xB881306BB40031FABFF2C80FFA60AF86)
Complete name                  : E:\60 FPS kino\Iron.Sky.The.Coming.Race.2019.AVO.BDRip.AVC.ExKinoRay.mkv
Format                         : Matroska
Format version                 : Version 2
File size                      : 1.98 GiB
Duration                       : 1 h 32 min
Overall bit rate               : 3 058 kb/s
Movie name                     : Iron Sky The Coming Race 2019 from ExKinoRay
Encoded date                   : UTC 2019-05-10 16:53:37
Writing application            : mkvmerge v5.6.0 ('Kenya Kane') built on May 27 2012 16:44:04
Writing library                : libebml v1.2.3 + libmatroska v1.3.0
Video
ID                             : 1
Format                         : AVC
Format/Info                    : Advanced Video Codec
Format profile                 : High@L4.1
Format settings                : CABAC / 12 Ref Frames
Format settings, CABAC         : Yes
Format settings, ReFrames      : 12 frames
Codec ID                       : V_MPEG4/ISO/AVC
Duration                       : 1 h 32 min
Bit rate                       : 2 160 kb/s
Width                          : 1 024 pixels
Height                         : 428 pixels
Display aspect ratio           : 2.40:1
Frame rate mode                : Constant
Frame rate                     : 23.976 (23976/1000) FPS
Color space                    : YUV
Chroma subsampling             : 4:2:0
Bit depth                      : 8 bits
Scan type                      : Progressive
Bits/(Pixel*Frame)             : 0.206
Stream size                    : 1.36 GiB (69%)
Title                          : Enigma
Writing library                : x264 core 152 r2851 ba24899
Encoding settings              : cabac=1 / ref=12 / deblock=1:-2:-2 / analyse=0x3:0x113 / me=umh / subme=10 / psy=1 / psy_rd=1.02:0.08 / mixed_ref=1 / me_range=32 / chroma_me=1 / trellis=2 / 8x8dct=1 / cqm=0 / deadzone=21,11 / fast_pskip=0 / chroma_qp_offset=-3 / threads=12 / lookahead_threads=3 / sliced_threads=0 / nr=0 / decimate=0 / interlaced=0 / bluray_compat=0 / constrained_intra=0 / bframes=10 / b_pyramid=2 / b_adapt=2 / b_bias=0 / direct=3 / weightb=1 / open_gop=0 / weightp=2 / keyint=240 / keyint_min=23 / scenecut=40 / intra_refresh=0 / rc=2pass / mbtree=0 / bitrate=2160 / ratetol=1.0 / qcomp=0.60 / qpmin=0 / qpmax=51 / qpstep=4 / cplxblur=20.0 / qblur=0.5 / ip_ratio=1.30 / pb_ratio=1.20 / aq=3:1.00
Language                       : English
Default                        : Yes
Forced                         : No
Color range                    : Limited
Color primaries                : BT.709
Transfer characteristics       : BT.709
Matrix coefficients            : BT.709
Audio #1
ID                             : 2
Format                         : AC-3
Format/Info                    : Audio Coding 3
Commercial name                : Dolby Digital
Codec ID                       : A_AC3
Duration                       : 1 h 32 min
Bit rate mode                  : Constant
Bit rate                       : 448 kb/s
Channel(s)                     : 6 channels
Channel layout                 : L R C LFE Ls Rs
Sampling rate                  : 48.0 kHz
Frame rate                     : 31.250 FPS (1536 SPF)
Bit depth                      : 16 bits
Compression mode               : Lossy
Stream size                    : 297 MiB (15%)
Title                          : AVO (BadBajo)
Language                       : Russian
Service kind                   : Complete Main
Default                        : Yes
Forced                         : No
Audio #2
ID                             : 3
Format                         : AC-3
Format/Info                    : Audio Coding 3
Commercial name                : Dolby Digital
Codec ID                       : A_AC3
Duration                       : 1 h 32 min
Bit rate mode                  : Constant
Bit rate                       : 448 kb/s
Channel(s)                     : 6 channels
Channel layout                 : L R C LFE Ls Rs
Sampling rate                  : 48.0 kHz
Frame rate                     : 31.250 FPS (1536 SPF)
Bit depth                      : 16 bits
Compression mode               : Lossy
Stream size                    : 297 MiB (15%)
Title                          : Original
Language                       : English
Service kind                   : Complete Main
Default                        : No
Forced                         : No
Text #1
ID                             : 4
Format                         : UTF-8
Codec ID                       : S_TEXT/UTF8
Codec ID/Info                  : UTF-8 Plain Text
Title                          : Full
Language                       : English
Default                        : No
Forced                         : No
Text #2
ID                             : 5
Format                         : UTF-8
Codec ID                       : S_TEXT/UTF8
Codec ID/Info                  : UTF-8 Plain Text
Title                          : SDH
Language                       : English
Default                        : No
Forced                         : No
Menu
00:00:00.000                   : en:Chapter 01
00:11:33.151                   : en:Chapter 02
00:24:00.564                   : en:Chapter 03
00:35:38.136                   : en:Chapter 04
00:49:49.987                   : en:Chapter 05
01:04:29.991                   : en:Chapter 06
01:17:18.717                   : en:Chapter 07
01:24:35.279                   : en:Chapter 08

Скриншоты


_________________
Показать сообщения:    
Ответить на тему

Текущее время: 27-Июн 14:09

Часовой пояс: UTC + 5



Вы не можете начинать темы
Вы не можете отвечать на сообщения
Вы не можете редактировать свои сообщения
Вы не можете удалять свои сообщения
Вы не можете голосовать в опросах
Вы не можете прикреплять файлы к сообщениям
Вы не можете скачивать файлы